Witaj Gościu! jeżeli widzisz ten dymek to znaczy że nie jesteś zarejestrowany/zalogowany. Kliknij by się zarejestrować. Rejestracja zajmie mniej niż 30 sekund, a dzięki niej zyskasz możliwość pobierania, komentowania oraz dodawania torrentów !


MENU


Panel Usera


Kategorie


PROGRAMY


Torrent: Wonder Woman 2017 PROPER HDTC x264-CPG Cob666 [NAPISY ŻÓŁTE WTOPIONE]
Dodał:  Cob666
Data: 27-06-2017
Rozmiar: 864.38 MB
Seed: 0
Peer: 0
Kondycja:
Zaloguj się aby pobrać


Kategoria:  Filmy TS/CAM
Gatunek: Sci-Fi / Fantasy
Zaakceptował: Nieznany użytkownik
Liczba pobrań: 35
Liczba komentarzy: 0
Ostatnia aktualizacja: 2017-06-27 08:07:16

OPIS:

Wonder Woman – amerykański fantastyczny film akcji na podstawie serii komiksów o superbohaterce o tym samym imieniu wydawnictwa DC Comics. Za reżyserię odpowiada Patty Jenkins, a za scenariusz Allan Heinberg. Wikipedia

Data premiery: 15 maja 2017 (Szanghaj)
Reżyseria: Patty Jenkins
Autor muzyki: Rupert Gregson-Williams
Studia filmowe: Warner Bros., DC Entertainment Inc, więcej
Scenariusz: Geoff Johns, Allan Heinberg

Video :
Format                                   : AVI
Format/Info                              : Audio Video Interleave
File size                                : 864 MiB
Duration                                 : 2 h 11 min
Overall bit rate                         : 922 kb/s

Format                                   : xvid
Codec ID                                 : xvid
Duration                                 : 2 h 11 min
Bit rate                                 : 781 kb/s
Width                                    : 720 pixels
Height                                   : 328 pixels
Display aspect ratio                     : 2.2:1
Frame rate                               : 30.000 FPS
Scan type                                : Progressive
Bits/(Pixel*Frame)                       : 0.110
Stream size                              : 732 MiB (85%)


Audio:
Format                                   : MPEG Audio
Format version                           : Version 1
Format profile                           : Layer 3
Mode extension                           : MS Stereo
Codec ID                                 : 55
Codec ID/Hint                            : MP3
Duration                                 : 2 h 11 min
Bit rate mode                            : Constant
Bit rate                                 : 128 kb/s
Channel(s)                               : 2 channels
Sampling rate                            : 44.1 kHz
Compression mode                         : Lossy
Stream size                              : 120 MiB (14%)
Alignment                                : Aligned on interleaves
Interleave, duration                     : 26  ms (0.78 video frame)
Interleave, preload duration             : 26  ms


Moja ocena jakości :
VIDEO: 6/10 - da się obejrzeć .
Audio: 6/10 - kinowy dźwięk ale daje rade .



DETALE TORRENTA:[ Pokaż/Ukryj ]
Podziękowania,
 




Komentarze