Witaj Gościu! jeżeli widzisz ten dymek to znaczy że nie jesteś zarejestrowany/zalogowany. Kliknij by się zarejestrować. Rejestracja zajmie mniej niż 30 sekund, a dzięki niej zyskasz możliwość pobierania, komentowania oraz dodawania torrentów !


MENU


Panel Usera


Kategorie


PROGRAMY


Torrent: Aquaman *2018* [720p] [KORSUB] [HDRip] [XviD] [MP3] [STUTTERSHIT] [ENG]
Dodał:  8fd415bf
Data: 26-01-2019
Rozmiar: 4.19 GB
Seed: 0
Peer: 0
Kondycja:
Zaloguj się aby pobrać


Kategoria:  Filmy DivX/XviD
Gatunek: Sci-Fi / Fantasy
Zaakceptował: Nie wymagał akceptacji
Liczba pobrań: 30
Liczba komentarzy: 0
Ostatnia aktualizacja: 2019-01-26 05:50:18

OPIS:



Produkcja: Australia, USA
Gatunek: Akcja, Sci-Fi
Premiera: 19 grudnia 2018 (Polska), 12 grudnia 2018 (świat)
Reżyseria: James Wan
Scenariusz: Will Beall, David Leslie Johnson-McGoldrick



Aquaman, który jest legendą od ponad 70 lat, to Król Siedmiu Mórz. Misją, tego niechętnie sprawującego rządy na Atlantydzie władcy, jest ochrona całego świata. Miota się on jednak między światem ponad powierzchnią wód nieustannie pustoszącym morza, a mieszkańcami Atlantydy dążącymi do wszczęcia buntu.



? Jason Momoa .... Arthur
? Amber Heard .... Mera
? Willem Dafoe .... Vulko
? Patrick Wilson .... Król Orm
? Nicole Kidman .... Atlanna
? Dolph Lundgren .... Król Nereus
? Yahya Abdul-Mateen II .... Manta
? Temuera Morrison .... Tom Curry



Video
ID : 0
Format : MPEG-4 Visual
Format profile : Simple@L5
Format settings, BVOP : No
Format settings, QPel : No
Format settings, GMC : No warppoints
Format settings, Matrix : Default (H.263)
Codec ID : XVID
Codec ID/Hint : XviD
Duration : 2 h 22 min
Bit rate : 4 000 kb/s
Width : 1 280 pixels
Height : 534 pixels
Display aspect ratio : 2.40:1
Frame rate : 29.970 (30000/1001) FPS
Color space : YUV
Chroma subsampling : 4:2:0
Bit depth : 8 bits
Scan type : Progressive
Compression mode : Lossy
Bits/(Pixel*Frame) : 0.195
Stream size : 3.98 GiB (95%)
Writing library : Lavc58.1.100

Audio
ID : 1
Format : MPEG Audio
Format version : Version 1
Format profile : Layer 3
Format settings : Joint stereo / MS Stereo
Codec ID : 55
Codec ID/Hint : MP3
Duration : 2 h 22 min
Bit rate mode : Constant
Bit rate : 192 kb/s
Channel(s) : 2 channels
Sampling rate : 48.0 kHz
Compression mode : Lossy
Stream size : 196 MiB (5%)
Alignment : Aligned on interleaves
Interleave, duration : 24 ms (0.72 video frame)
Interleave, preload duration : 504 ms



https://imagecurl.com/viewer.php?file=50601231435360944419.png
https://imagecurl.com/viewer.php?file=42022824183125997207.png
https://imagecurl.com/viewer.php?file=57181104164029145856.png

DETALE TORRENTA:[ Pokaż/Ukryj ]
Podziękowania,
 




Komentarze