Witaj Gościu! jeżeli widzisz ten dymek to znaczy że nie jesteś zarejestrowany/zalogowany. Kliknij by się zarejestrować. Rejestracja zajmie mniej niż 30 sekund, a dzięki niej zyskasz możliwość pobierania, komentowania oraz dodawania torrentów !


MENU


Panel Usera


Kategorie


PROGRAMY


Torrent: Leonard Cohen-Live in Dublin (2014)[BRRip 1080p x264 AC3/TrueHD][Eng]
Dodał:  alE13
Data: 07-11-2017
Rozmiar: 10.51 GB
Seed: 17
Peer: 21
Kondycja:
Zaloguj się aby pobrać


Kategoria:  Koncerty

Zaakceptował: verbatim
Liczba pobrań: 17
Liczba komentarzy: 0
Ostatnia aktualizacja: 2017-11-07 20:37:16

OPIS:





Dziś mija rok jak zmarł Leonard Cohen.
21-09-1934 ----- 07-11-2016

Plik zawiera Sample.


produkcja:  USA
data: 2014
reżyseria:????
gatunek:  Dokument, Folk Rock, Koncert
czas:   03:09:51



Live in Dublin is a live album by Canadian singer-songwriter Leonard Cohen.
It was released on 2 December 2014. The album was recorded in September 2013
at Dublin's O2 Arena.

Live In Dublin is the first and only release of a complete Leonard Cohen concert
to be shot in high definition. Lensed and recorded at Dublin's 02 Arena on September 12th 2013,
Leonard Cohen - Live In Dublin documents a peak performance from the musician's monumental
sold-out 2012-2013 world tour, introducing Cohen's then-latest release (2012's Old Ideas)
within a major canonical on-stage retrospective.

This state-of-the-art audio-visual HD presentation of a full-length concert from the Old Ideas
world tour delivers this artist's repertoire (backed by a band recognized by critics as his best ever)
with the intimacy, poetic beauty and intensity that have become hallmarks of a Leonard Cohen concert.
Live In Dublin recreates the deep emotional connection that audiences felt so powerfully and critics
praised universally with five star reviews during Cohen's most recent tour.

An immersive sonic and viewing experience, Leonard Cohen - Live In Dublin's three hours of music and magic
includes an 11-song first set, a 10-song second set and an 8-song encore. Also features bonus live tracks
recorded in Canada in 2013.

Leonard Norman Cohen (ur. 21 września 1934 w Montrealu) – kanadyjski poeta, pisarz i piosenkarz tworzący
w stylu piosenki autorskiej w gatunku folk rock.

Zarejestrowany 12 września 2013 roku w 02 Arena w Dublinie materiał dokumentuje jeden z najlepszych koncertów
Cohena z wyprzedanej trasy z lat 2012-2013 promującej poprzedni krążek ‘Old Ideas’ ale będących doskonałą
retrospektywną wycieczką po wszystkich okresach jego twórczości. Leonard śpiewa tu z towarzyszeniem zespołu,
który zdaniem krytyków jest najlepszym, jaki kiedykolwiek udało mu się skompletować a niezwykły nastrój
towarzyszący całemu wydarzeniu oddaje cały klimat tamtej trasy.

W ostatnim wywiadzie dla Davida Remnicka z „New Yorkera” zarecytował
słowa „małej słodkiej piosenki”, jak sam ją nazwał:

"Listen to the hummingbird
Whose wings you cannot see
Listen to the hummingbird
Don’t listen to me

Listen to the butterfly
Whose days but numer three
Listen to the butterfly
Don’t listen to me

Listen to the mind of God
Which doesn’t need to be
Listen to the mind of God
Don’t listen to me"



01. Dance me to the end of love
02. The future
03. Bird on a wire
04. Everybody knows
05. Who by fire
06. The gypsy's wife
07. The darkness
08. Amen
09. Come healing
10. Lover, lover, lover
11. Anthem
12. Tower of song
13. Suzanne
14. Chelsea hotel #2
15. Waiting for the miracle
16. The partisan
17. In my secret life
18. Alexandra leaving (Sharon Robinson)
19. I'm your man
20. Recitation w/N.L.
21. Hallelujah
22. Take this waltz
23. So long, marianne
24. Going home
25. First we take manhattan
26. Famous blue raincoat
27. If it be your will (webb sisters)
28. Closing time
29. I tried to leave you
30. Save the last dance for me

Bonus Tracks:

31. Show me the place (Halifax, Canada 2013)
32. Anyhow (St. Johns, Canada 2013)
33. Different sides (St. John, Canada 2013)



Leonard Cohen - Live in Dublin (2014)-alE13.mkv
Format                      : Matroska
Format version              : Version 4 / Version 2
File size                   : 8.69 GiB
Duration                    : 3 h 9 min
Overall bit rate mode       : Variable
Overall bit rate            : 6 553 kb/s
Movie name                  : Leonard Cohen: Live in Dublin (2014)-alE13
Encoded date                : UTC 2017-10-30 07:25:17
Writing application         : mkvmerge v8.1.0 ('Psychedelic Postcard' 64bit
Writing library             : libebml v1.3.1 + libmatroska v1.4.2
Cover                       : Yes
Attachments                 : Cover.jpg

Video
ID                          : 1
Format                      : AVC
Format/Info                 : Advanced Video Codec
Format profile              : High@L4.1
Format settings, CABAC      : Yes
Format settings, ReFrames   : 2 frames
Codec ID                    : V_MPEG4/ISO/AVC
Duration                    : 3 h 9 min
Bit rate                    : 3 108 kb/s
Width                       : 1 920 pixels
Height                      : 1 080 pixels
Display aspect ratio        : 16:9
Frame rate mode             : Constant
Frame rate                  : 29.970 (30000/1001) FPS
Color space                 : YUV
Chroma subsampling          : 4:2:0
Bit depth                   : 8 bits
Scan type                   : Progressive
Bits/(Pixel*Frame)          : 0.050
Stream size                 : 4.12 GiB (47%)
Title                       : Leonard Cohen: Live in Dublin (2014)_Rip.-alE13
Writing library             : x264 core 142
Default                     : Yes
Forced                      : No
Color range                 : Limited
Color primaries             : BT.709
Transfer characteristics    : BT.709
Matrix coefficients         : BT.709

Audio #1
ID                          : 2
Format                      : TrueHD
Codec ID                    : A_TRUEHD
Duration                    : 3 h 9 min
Bit rate mode               : Variable
Bit rate                    : 2 927 kb/s
Maximum bit rate            : 3 567 kb/s
Channel(s)                  : 5 channels
Channel positions           : Front: L C R, Side: L R
Sampling rate               : 48.0 kHz
Frame rate                  : 1 200.000 FPS (40 spf)
Compression mode            : Lossless
Stream size                 : 3.88 GiB (45%)
Title                       : Leonard Cohen: Live in Dublin (2014)-alE13_True HD @ Max. bit rate 3567 Kbps_5 ch.
Language                    : English
Default                     : No
Forced                      : No

Audio #2
ID                          : 3
Format                      : AC-3
Format/Info                 : Audio Coding 3
Mode extension              : CM (complete main)
Format settings, Endianness : Big
Codec ID                    : A_AC3
Duration                    : 3 h 9 min
Bit rate mode               : Constant
Bit rate                    : 448 kb/s
Channel(s)                  : 6 channels
Channel positions           : Front: L C R, Side: L R, LFE
Sampling rate               : 48.0 kHz
Frame rate                  : 31.250 FPS (1536 spf)
Compression mode            : Lossy
Stream size                 : 608 MiB (7%)
Title                       : Leonard Cohen: Live in Dublin (2014)-alE13_AC3 @ 448 448 Kbps
Language                    : English
Default                     : Yes
Forced                      : No

DETALE TORRENTA:[ Pokaż/Ukryj ]
Podziękowania, Go??




Komentarze