Witaj Gościu! jeżeli widzisz ten dymek to znaczy że nie jesteś zarejestrowany/zalogowany. Kliknij by się zarejestrować. Rejestracja zajmie mniej niż 30 sekund, a dzięki niej zyskasz możliwość pobierania, komentowania oraz dodawania torrentów !


User:      Hasło:     

MENU


Kategorie


FACEBOOK


PROGRAMY


WspółPraca
Poradnik
KAN


ZAGŁOSUJ NA NAS


Torrent



Torrent: Sicario 2: Soldado - Sicario: Day of the Soldado *2018* [1080p] [AMZN] [WEBRip] [DDP5 1] [x264-NTG] [ENG]
Dodał:  zibi6248
Data: 12-09-2018
Rozmiar: 4.76 GB
Seed: 0
Peer: 0
Kondycja:
Zaloguj się aby pobrać


Kategoria:  Filmy x264/h264
Gatunek: Akcja / Sensacyjny
Zaakceptował: Nie wymagał akceptacji
Liczba pobrań: 130
Liczba komentarzy: 1
Ostatnia aktualizacja: 2018-09-19 03:01:27

OPIS:



Produkcja: USA, Włochy
Gatunek: Thriller, Akcja
Premiera: 20 lipca 2018 (Polska), 27 czerwca 2018 (świat)
Reżyseria: Stefano Sollima
Scenariusz: Taylor Sheridan
https://www.youtube.com/watch?v=74NMhaeC62U



Matt i Alejandro powracają na pogranicze amerykańsko-meksykańskie, by dopaść Carlosa Reyesa, narkotykowego  barona, który trudni się także przemytem broni dla terrorystów. To co miało być szybką i stosunkowo prostą misją, wkrótce przeradza się w prawdziwą wojnę. Okazuje się bowiem, że Pentagon wydał zgodę na użycie oddziałów specjalnych i ciężkiego uzbrojenia do bezwzględnej walki z sojusznikiem terrorystów. Matt i Alejandro wiedzą, że te metody na pograniczu zamiast  przynieść upragniony skutek, mogą wywołać katastrofę. Alejandro podejmuje się samotnej misji po drugiej stronie granicy, która każe mu się cofnąć w głąb mrocznej przeszłości, o której tak pragnął zapomnieć.



★ Benicio del Toro .... Alejandro
★ Josh Brolin .... Matt Graver
★ Isabela Moner .... Isabela Reyes
★ Jeffrey Donovan .... Steve Forsing
★ Catherine Keener .... Cynthia Foards
★ Manuel Garcia-Rulfo .... Gallo
★ Matthew Modine .... James Riley
★ Shea Whigham .... Andy Wheeldon



MediaInfo «
Video
ID : 1
Format : AVC
Format/Info : Advanced Video Codec
Format profile : High@L4
Format settings : CABAC / 4 Ref Frames
Format settings, CABAC : Yes
Format settings, ReFrames : 4 frames
Codec ID : V_MPEG4/ISO/AVC
Duration : 2 h 2 min
Bit rate : 4 926 kb/s
Width : 1 920 pixels
Height : 800 pixels
Display aspect ratio : 2.40:1
Frame rate mode : Constant
Frame rate : 23.976 (24000/1001) FPS
Color space : YUV
Chroma subsampling : 4:2:0
Bit depth : 8 bits
Scan type : Progressive
Bits/(Pixel*Frame) : 0.134
Stream size : 4.21 GiB (88%)
Default : Yes
Forced : No
Color range : Limited
Color primaries : BT.709
Transfer characteristics : BT.709
Matrix coefficients : BT.709

Audio
ID : 2
Format : E-AC-3
Format/Info : Enhanced Audio Coding 3
Codec ID : A_EAC3
Duration : 2 h 2 min
Bit rate mode : Constant
Bit rate : 640 kb/s
Channel(s) : 6 channels
Channel positions : Front: L C R, Side: L R, LFE
Sampling rate : 48.0 kHz
Frame rate : 187.500 FPS (256 SPF)
Compression mode : Lossy
Stream size : 560 MiB (11%)
Language : English
Service kind : Complete Main
Default : Yes
Forced : No

Text
ID : 3
Format : UTF-8
Codec ID : S_TEXT/UTF8
Codec ID/Info : UTF-8 Plain Text
Duration : 2 h 1 min
Bit rate : 32 b/s
Count of elements : 1176
Stream size : 29.1 KiB (0%)
Title : SDH
Language : English
Default : No
Forced : No

DETALE TORRENTA:[ Pokaż/Ukryj ]
Podziękowania, bomb
 




Komentarze
14/09/2018 00.00.09
bomb
Dzieki!