Witaj Gościu! jeżeli widzisz ten dymek to znaczy że nie jesteś zarejestrowany/zalogowany. Kliknij by się zarejestrować. Rejestracja zajmie mniej niż 30 sekund, a dzięki niej zyskasz możliwość pobierania, komentowania oraz dodawania torrentów !



User:      Hasło:     

MENU


Kategorie


PROGRAMY


Torrent: Krym - Crimea - ???? [2017] [720p] [web-dl] [x264] [AC3 5 1 ] [napisy PL]
Dodał:  8fd415bf
Data: 12-01-2019
Rozmiar: 1.07 GB
Seed: 3
Peer: 4
Kondycja:
Zaloguj się aby pobrać


Kategoria:  Filmy x264/h264
Gatunek: Dramat / Obyczajowy
Zaakceptował: Nie wymagał akceptacji
Liczba pobrań: 7
Liczba komentarzy: 0
Ostatnia aktualizacja: 2019-01-12 03:42:21

OPIS:



Krym
Crimea
????
:
reżyseria: Aleksey Pimanov
scenariusz: Vladimir Bragin, Aleksey Pimanov
gatunek: Akcja, Dramat, Romans
produkcja: Rosja
premiera: 28 września 2017
:



Historia miłości, wiary i honoru, siła ducha i prawdziwa przyjaźń na tle prawdziwych wydarzeń z krymskiej wiosny 2014 roku. Los zjednoczył ich na Krymie w pobliżu starożytnego miasta Mangup-Kale. To była miłość od pierwszego wejrzenia ... W trudnych dniach historycznych zmian muszą uratować swoje życie i miłość. Niektóre sceny, jak na przykład zamieszki na Majdanie czy pogrom pod Korsuniem, gdzie ukraińscy radykałowie napadali na wracających autobusami do domu Krymian, pokazano na ekranie z prawie dokumentalną dokładnością. Prace nad obrazem trwały prawie dwa lata, 3 miesiące w samym Krymie.
Zdjęcia do filmu powstawały w takich miastach jak Sewastopol, Bałakława, Symferopol, Teodozja czy baza wojskowa Aj-Petri. Natomiast w scenie na dworcu w Symferopolu, w której krymscy powstańcy czekają na pociąg z nacjonalistami, zagrali ludzie, którzy naprawdę stali na tym peronie w 2014 roku.



Roman Kurtsyn ... Sasha
Evgeniya Lapova ... Alyona
Pavel Kraynov ... Mikola
Pavel Trubiner ... Aleksey

..:TRAILER)::..



Video
ID                          : 1
Format                      : AVC
Format/INFO                 : Advanced Video Codec
Format profile              : High@L4.1
Format settings, CABAC      : Yes
Format settings, ReFrames   : 4 frames
Codec ID                    : V_MPEG4/ISO/AVC
Duration                    : 1h 36mn
Bit rate                    : 1 200 Kbps
Width                       : 1 280 pixels
Height                      : 544 pixels
Display aspect ratio        : 2.35:1
Frame rate mode             : Constant
Frame rate                  : 25.000 fps
Color space                 : YUV
Chroma subsampling          : 4:2:0
Bit depth                   : 8 bits
Scan type                   : Progressive
Bits/(Pixel*Frame)          : 0.069
Stream size                 : 826 MiB (76%)
Writing library             : x264 core 142 r2479 dd79a61
Color primaries             : BT.709
Transfer characteristics    : BT.709
Matrix coefficients         : BT.709

Audio
ID                          : 2
Format                      : AC-3
Format/INFO                 : Audio Coding 3
Mode extension              : CM (complete main)
Format settings, Endianness : Big
Codec ID                    : A_AC3
Duration                    : 1h 36mn
Bit rate mode               : Constant
Bit rate                    : 384 Kbps
Channel(s)                  : 6 channels
Channel positions           : Front: L C R, Side: L R, LFE
Sampling rate               : 48.0 KHz
Frame rate                  : 31.250 fps (1536 spf)
Compression mode            : Lossy
Stream size                 : 264 MiB (24%)
Language                    : Russian
Default                     : Yes
Forced                      : No

Text
ID                          : 3
Format                      : UTF-8
Codec ID                    : S_TEXT/UTF8
Codec ID/INFO               : UTF-8 Plain Text

DETALE TORRENTA:[ Pokaż/Ukryj ]
Podziękowania,
 




Komentarze