Witaj Gościu! jeżeli widzisz ten dymek to znaczy że nie jesteś zarejestrowany/zalogowany. Kliknij by się zarejestrować. Rejestracja zajmie mniej niż 30 sekund, a dzięki niej zyskasz możliwość pobierania, komentowania oraz dodawania torrentów !

MENU


Kategorie


FACEBOOK


PROGRAMY


REKLAMA


ZAGŁOSUJ NA NAS


Torrent



Torrent: Phantom (2013)[BDRip 1080p x264 by alE13 AC3/DTS][Lektor i Napisy PL/Eng][Eng]
Dodał:  alE13
Data: 14-11-2017
Rozmiar: 9.56 GB
Seed: 10
Peer: 16
Pobierz Torrent


Kategoria:  Filmy BluRay/HDTV 1080p
Gatunek: Thrillery / Kryminalne
Zaakceptował: Karibu
Liczba pobrań: 12
Liczba komentarzy: 1
Ostatnia aktualizacja: 2017-11-15 07:26:21
OPIS:





http://www.imdb.com/title/tt1922685/
http://www.filmweb.pl/film/Phantom-2013-626076

Audio DTS w osobnym pliku.
Plik zawiera Sample.


reżyseria: Todd Robinson
scenariusz: Todd Robinson
gatunek: Thriller
produkcja: USA
premiera: 01-01-2013
muzyka:         Jeff Rona
zdjęcia:        Byron Werner
czas:           01:38:28



The haunted Captain of a Soviet submarine holds the fate of the world in his hands.
Forced to leave his family behind, he is charged with leading a covert mission cloaked
in mystery.

W samym szczycie Zimnej Wojny cały świat wstrzymuje oddech, gdy sowiecki okręt podwodny
uzbrojony w pociski nuklearne ginie gdzieś na Pacyfiku. Na pokładzie jednostki, zaprawiony
w bojach kapitan (Ed Harris) i agent KGB (David Duchovny) prowadzą śmiertelnie niebezpieczną
grę. Gdy zbliżają się wrogie siły i czas ucieka, kapitan walczy, by utrzymać kontrolę i zapobiec
nuklearnej katastrofie.



Ed Harris, David Duchovny, Lance Henriksen



audio:

Phantom (2013)-alE13_DTS.mka

Hash: ECE1F3DA8B6E189D
Format: Matroska
Czas: 01:38:28.907
Rozmiar: 1.04 GiB (1116010125)

Audio (0):
Kodek:         (DTS) DTS
Format:       DTS
Kanały:       6 channels
BitRate:       1 509 kb/s
Język:       English


Napisy (0):
Kodek:         (S_TEXT/UTF UTF-8
Format:       UTF-8
Język:       English

Phantom (2013)-alE13.mkv
Format                      : Matroska
Format version              : Version 4 / Version 2
File size                   : 8.48 GiB
Duration                    : 1 h 38 min
Overall bit rate mode       : Variable
Overall bit rate            : 12.3 Mb/s
Movie name                  : Phantom (2013)-alE13
Encoded date                : UTC 2017-11-14 06:46:50
Writing application         : mkvmerge v8.1.0 ('Psychedelic Postcard' 64bit
Writing library             : libebml v1.3.1 + libmatroska v1.4.2
Cover                       : Yes
Attachments                 : Cover.jpg

Video
ID                          : 1
Format                      : AVC
Format/Info                 : Advanced Video Codec
Format profile              : High@L4
Format settings, CABAC      : Yes
Format settings, ReFrames   : 3 frames
Codec ID                    : V_MPEG4/ISO/AVC
Duration                    : 1 h 38 min
Bit rate mode               : Variable
Bit rate                    : 11.4 Mb/s
Maximum bit rate            : 20.0 Mb/s
Width                       : 1 920 pixels
Height                      : 816 pixels
Display aspect ratio        : 2.35:1
Frame rate mode             : Constant
Frame rate                  : 23.976 (24000/1001) FPS
Standard                    : PAL
Color space                 : YUV
Chroma subsampling          : 4:2:0
Bit depth                   : 8 bits
Scan type                   : Progressive
Bits/(Pixel*Frame)          : 0.304
Stream size                 : 7.86 GiB (93%)
Title                       : Phantom (2013)-alE13
Default                     : Yes
Forced                      : No
Color range                 : Limited
Color primaries             : BT.709
Transfer characteristics    : BT.709
Matrix coefficients         : BT.709

Audio #1
ID                          : 2
Format                      : AC-3
Format/Info                 : Audio Coding 3
Mode extension              : CM (complete main)
Format settings, Endianness : Big
Codec ID                    : A_AC3
Duration                    : 1 h 38 min
Bit rate mode               : Constant
Bit rate                    : 448 kb/s
Channel(s)                  : 6 channels
Channel positions           : Front: L C R, Side: L R, LFE
Sampling rate               : 48.0 kHz
Frame rate                  : 31.250 FPS (1536 spf)
Compression mode            : Lossy
Stream size                 : 316 MiB (4%)
Title                       : Phantom (2013)-alE13_AC3
Language                    : Polish
Default                     : Yes
Forced                      : No

Audio #2
ID                          : 3
Format                      : AC-3
Format/Info                 : Audio Coding 3
Mode extension              : CM (complete main)
Format settings, Endianness : Big
Codec ID                    : A_AC3
Duration                    : 1 h 38 min
Bit rate mode               : Constant
Bit rate                    : 448 kb/s
Channel(s)                  : 6 channels
Channel positions           : Front: L C R, Side: L R, LFE
Sampling rate               : 48.0 kHz
Frame rate                  : 31.250 FPS (1536 spf)
Compression mode            : Lossy
Stream size                 : 316 MiB (4%)
Title                       : Phantom (2013)-alE13_AC3
Language                    : English
Default                     : No
Forced                      : No

Text #1
ID                          : 4
Format                      : UTF-8
Codec ID                    : S_TEXT/UTF8
Codec ID/Info               : UTF-8 Plain Text
Duration                    : 1 h 36 min
Bit rate                    : 64 b/s
Count of elements           : 1265
Stream size                 : 45.5 KiB (0%)
Title                       : Phantom (2013)-alE13_SRT
Language                    : English
Default                     : No
Forced                      : No

Text #2
ID                          : 5
Format                      : UTF-8
Codec ID                    : S_TEXT/UTF8
Codec ID/Info               : UTF-8 Plain Text
Duration                    : 1 h 32 min
Bit rate                    : 59 b/s
Count of elements           : 1084
Stream size                 : 40.4 KiB (0%)
Title                       : Phantom (2013)-alE13_SRT
Language                    : Polish
Default                     : No
Forced                      : No

DETALE TORRENTA:[ Pokaż/Ukryj ]



Podobne pliki
Nie znaleziono podobnych tytułów!


Komentarze
14/11/2017 08.31.31
zibi6248
jak zwykle u ciebie super wstawka w super jakości dziękuję