Witaj Gościu! jeżeli widzisz ten dymek to znaczy że nie jesteś zarejestrowany/zalogowany. Kliknij by się zarejestrować. Rejestracja zajmie mniej niż 30 sekund, a dzięki niej zyskasz możliwość pobierania, komentowania oraz dodawania torrentów !


MENU


Panel Usera


Kategorie


PROGRAMY


Torrent: Chyłka - Zaginięcie S01E01-E02 [720p] [WEB-DL] [x264-manio750] [PL] [ts559]
Dodał:  8fd415bf
Data: 26-12-2018
Rozmiar: 1.77 GB
Seed: 0
Peer: 0
Kondycja:
Zaloguj się aby pobrać


Kategoria:  Seriale Polskie

Zaakceptował: Nie wymagał akceptacji
Liczba pobrań: 27
Liczba komentarzy: 0
Ostatnia aktualizacja: 2018-12-26 15:38:33

OPIS:

==================
...::: INFO :::...
==================

Produkcja:  Polska
Stacja TV: TVN
Gatunek: Obyczajowy
Czas trwania: 44 min.
Premiera : 26.12.2018 - Świat
Twórcy: Łukasz Palkowski

==================
...::: OPIS :::...
==================

Główna bohaterka Joanna Chyłka jest zdolna, bezkompromisowa, odważna i niepokorna. W prawniczym świecie pełnym mężczyzn w niczym im nie ustępuje. Gdy trzyletnia Nikola Szlezyngier znika bez śladu, a policja nie znajduje dowodów wskazujących na porwanie, głównymi podejrzanymi stają się rodzice dziecka. To właśnie Chyłka i jej nowy aplikant Kordian Oryński podejmują się obrony małżeństwa. Wszystkie poszlaki wskazują jednak na winę Szlezyngierów. Czy prawnicy zdołają wspólnie doprowadzić sprawę do szczęśliwego finału?

==============
...::: OBSADA :::...
==============

       Magdalena Cielecka - Joanna Chyłka
Filip Pławiak - Kordian "Zordon" Oryński
Katarzyna Warnke - Angelika Szlezyngier
Michał Żurawski Dawid Szlezyngier
Jacek Koman Harry McVay
Szymon Bobrowski - Artur Żelazny
Piotr Stramowski - Adam Kosmowski
Piotr Żurawski - Kormak
Piotr Głowacki - Zbigniew Aronowicz
Maciej Mikołajczyk - Jacek Satanowski
Mirosław Haniszewski - Wito
Mirosław Baka - Antoni Ekiel
Jakub Gierszał - Piotr Langer junior
Artur Żmijewski - Piotr Langer senior
Olga Bołądź - Magda
Jerzy Schejbal - Filip Obertał

=======================
...::: DANE TECHNICZNE :::...
=======================

Format                         : MPEG-4
Format profile                 : Base Media
Codec ID                       : isom (isom/iso2/mp41)
File size                      : 891 MiB
Duration                       : 42 min 43 s
Overall bit rate               : 2 915 kb/s
Encoded date                   : UTC 2018-12-21 17:07:47
Tagged date                    : UTC 2018-12-21 17:07:47

Video
ID                             : 2
Format                         : AVC
Format/INFO                    : Advanced Video Codec
Format profile                 : Baseline@L4.1
Format settings                : 2 Ref Frames
Format settings, CABAC         : No
Format settings, ReFrames      : 2 frames
Format settings, GOP           : M=1, N=50
Codec ID                       : avc1
Codec ID/INFO                  : Advanced Video Coding
Duration                       : 42 min 43 s
Bit rate                       : 2 785 kb/s
Width                          : 1 280 pixels
Height                         : 720 pixels
Display aspect ratio           : 16:9
Frame rate mode                : Constant
Frame rate                     : 25.000 FPS
Color space                    : YUV
Chroma subsampling             : 4:2:0
Bit depth                      : 8 bits
Scan type                      : Progressive
Bits/(Pixel*Frame)             : 0.121
Stream size                    : 851 MiB (96%)
Encoded date                   : UTC 2018-12-21 17:07:47
Tagged date                    : UTC 2018-12-21 17:07:47
Codec configuration box        : avcC

Audio
ID                             : 1
Format                         : AAC LC
Format/INFO                    : Advanced Audio Codec Low Complexity
Codec ID                       : mp4a-40-2
Duration                       : 42 min 43 s
Bit rate mode                  : Constant
Bit rate                       : 128 kb/s
Channel(s)                     : 2 channels
Channel layout                 : L R
Sampling rate                  : 48.0 kHz
Frame rate                     : 46.875 FPS (1024 SPF)
Compression mode               : Lossy
Stream size                    : 39.1 MiB (4%)
Encoded date                   : UTC 2018-12-21 17:07:47
Tagged date                    : UTC 2018-12-21 17:07:47
mdhd_Duration                  : 2563605

DETALE TORRENTA:[ Pokaż/Ukryj ]
Podziękowania,
 




Komentarze