Witaj Gościu! jeżeli widzisz ten dymek to znaczy że nie jesteś zarejestrowany/zalogowany. Kliknij by się zarejestrować. Rejestracja zajmie mniej niż 30 sekund, a dzięki niej zyskasz możliwość pobierania, komentowania oraz dodawania torrentów !



User:      Hasło:     

MENU


Kategorie


PROGRAMY


Torrent: Babylon A D (2008)[BDRip 1080p x264 by alE13 AC3/DTS][Napisy PL/Eng][Eng]
Dodał:  alE13
Data: 07-03-2019
Rozmiar: 9.41 GB
Seed: 1
Peer: 1
Kondycja:
Zaloguj się aby pobrać


Kategoria:  Filmy BluRay/HDTV 1080p
Gatunek: Akcja / Sensacyjny
Zaakceptował: Nieznany użytkownik
Liczba pobrań: 9
Liczba komentarzy: 0
Ostatnia aktualizacja: 2019-03-07 11:50:00

OPIS:







https://www.imdb.com/title/tt0364970/
https://www.filmweb.pl/film/Babylon+A.D.-2008-119676/trivia

Plik zawiera Sample.
Audio DTS w osobnym pliku.


reżyseria: Mathieu Kassovitz
scenariusz: Mathieu Kassovitz,Éric Besnard
gatunek: Thriller,Akcja,Sci-Fi
produkcja: Francja,USA,Wielka Brytania
premiera: 20-08-2008
muzyka:         Atli Örvarsson
zdjęcia:        Thierry Arbogast
czas:           1 h 40 min



Veteran-turned-mercenary Toorop takes the high-risk job of escorting a woman from Russia
to America. Little does he know that she is host to an organism that a cult wants to harvest
in order to produce a genetically modified Messiah.

Zrealizowana z ogromnym rozmachem, pełna akcji i znakomitych efektów specjalnych
mroczna wizja świata na krawędzi upadku. Jest niedaleka przyszłość. Przez świat
przetoczyła się fala wyniszczających wojen. Władza jest w rękach organizacji przestępczych
fanatycznych sekt religijnych. Wszystko wskazuje na to, że Apokalipsa jest bliska. Toorop
nie zna innego życia niż wojna. Sztukę zabijania doprowadził do mistrzostwa. Jego światem
rządzi prosta zasada: zabijasz albo giniesz.










Vin Diesel, Michelle Yeoh, Mélanie Thierry



Audio:

Babylon A.D. (2009)-alE13_DTS.mka

Audio
ID                          : 1
Format                      : DTS
Format/Info                 : Digital Theater Systems
Codec ID                    : A_DTS
Duration                    : 1 h 40 min
Bit rate mode               : Constant
Bit rate                    : 1 509 kb/s
Channel(s)                  : 6 channels
Channel positions           : Front: L C R, Side: L R, LFE
Sampling rate               : 48.0 kHz

Video:

Babylon A.D. (2008)-alE13.mkv
Format                      : Matroska
Format version              : Version 4 / Version 2
File size                   : 8.25 GiB
Duration                    : 1 h 40 min
Overall bit rate mode       : Variable
Overall bit rate            : 11.7 Mb/s
Movie name                  : Babylon A.D. (2008)-alE13_DTS
Encoded date                : UTC 2019-03-07 08:50:23
Writing application         : mkvmerge v8.1.0 ('Psychedelic Postcard' 64bit
Writing library             : libebml v1.3.1 + libmatroska v1.4.2
Cover                       : Yes
Attachments                 : Cover.jpg

Video
ID                          : 1
Format                      : AVC
Format/Info                 : Advanced Video Codec
Format profile              : High@L4
Format settings             : CABAC / 3 Ref Frames
Format settings, CABAC      : Yes
Format settings, ReFrames   : 3 frames
Codec ID                    : V_MPEG4/ISO/AVC
Duration                    : 1 h 40 min
Bit rate mode               : Variable
Bit rate                    : 11.1 Mb/s
Maximum bit rate            : 20.0 Mb/s
Width                       : 1 920 pixels
Height                      : 816 pixels
Display aspect ratio        : 2.35:1
Frame rate mode             : Constant
Frame rate                  : 23.976 (24000/1001) FPS
Standard                    : PAL
Color space                 : YUV
Chroma subsampling          : 4:2:0
Bit depth                   : 8 bits
Scan type                   : Progressive
Bits/(Pixel*Frame)          : 0.294
Stream size                 : 7.80 GiB (94%)
Title                       : Babylon A.D. (2008)-alE13
Default                     : Yes
Forced                      : No
Color range                 : Limited
Color primaries             : BT.709
Transfer characteristics    : BT.709
Matrix coefficients         : BT.709

Audio
ID                          : 2
Format                      : AC-3
Format/Info                 : Audio Coding 3
Codec ID                    : A_AC3
Duration                    : 1 h 40 min
Bit rate mode               : Constant
Bit rate                    : 640 kb/s
Channel(s)                  : 6 channels
Channel positions           : Front: L C R, Side: L R, LFE
Sampling rate               : 48.0 kHz
Frame rate                  : 31.250 FPS (1536 SPF)
Bit depth                   : 16 bits
Compression mode            : Lossy
Stream size                 : 462 MiB (5%)
Title                       : Babylon A.D. (2008)-alE13_AC3
Language                    : English
Service kind                : Complete Main
Default                     : Yes
Forced                      : No

Text #1
ID                          : 3
Format                      : UTF-8
Codec ID                    : S_TEXT/UTF8
Codec ID/Info               : UTF-8 Plain Text
Duration                    : 1 h 33 min
Bit rate                    : 35 b/s
Count of elements           : 755
Stream size                 : 24.3 KiB (0%)
Title                       : Babylon A.D. (2008)-alE13
Language                    : Polish
Default                     : Yes
Forced                      : No

Text #2
ID                          : 4
Format                      : UTF-8
Codec ID                    : S_TEXT/UTF8
Codec ID/Info               : UTF-8 Plain Text
Duration                    : 1 h 36 min
Bit rate                    : 39 b/s
Count of elements           : 874
Stream size                 : 27.7 KiB (0%)
Title                       : Babylon A.D. (2008)-alE13
Language                    : English
Default                     : No
Forced                      : No

DETALE TORRENTA:[ Pokaż/Ukryj ]
PodziękowaniaNikt jeszcze nie podziękował.
 




Komentarze