Witaj Gościu! jeżeli widzisz ten dymek to znaczy że nie jesteś zarejestrowany/zalogowany. Kliknij by się zarejestrować. Rejestracja zajmie mniej niż 30 sekund, a dzięki niej zyskasz możliwość pobierania, komentowania oraz dodawania torrentów !

MENU


Kategorie


FACEBOOK


PROGRAMY


REKLAMA


ZAGŁOSUJ NA NAS


Torrent



Torrent: Wikingowie - Vikings S05E03 720p HDTV x264-KILLERS [ENG]
Dodał:  Heisenberg
Data: 07-12-2017
Rozmiar: 1.02 GB
Seed: 0
Peer: 0
Pobierz Torrent


Kategoria:  Seriale Zagraniczne

Zaakceptował: Nie wymagał akceptacji
Liczba pobrań: 28
Liczba komentarzy: 0
Ostatnia aktualizacja: 2017-12-07 09:32:01
OPIS:

...( Info )...

Produkcja: Irlandia, Kanada
Gatunek: Dramat historyczny
Twórca: Michael Hirst
Zdjęcia: John S. Bartley
Muzyka: Trevor Morris

...( O filmie )...

YouTube - Trailer
https://www.youtube.com/watch?v=Ts_8uk1ddJI  

...( Opis )...

XI wiek. Młody wojownik Ragnar Lothbrok (Travis Fimmel) służy jarlowi Earlowi Haraldsonowi (Gabriel Byrne). Mężczyzna pragnie zdobyć nieodkryte jak dotąd przez wikingów ziemie na zachodzie. Nie podobają mu się decyzje podejmowane przez wodza, który co roku wysyła swoich podwładnych na rabunkowe wyprawy do krain zamieszkałych przez Bałtów i Słowian. W jego działaniach wspierają go oddany przyjaciel, rzemieślnik Floki (Gustaf Skarsgard), brat Rollo (Clive Standen) oraz żona Lagertha (Katheryn Winnick). Oparta na faktach historia owianego legendą nordyckiego wodza.

Ragnar udaje się do Gotlandii, aby zakończyć konflikt o sporną ziemię. Rozpoczyna negocjacje z jarlem Borgiem. Ambitny i kierowany zazdrością Rollo staje przeciwko Lothbrokowi. Tymczasem mieszkańcy Kattegat padają ofiarą epidemii. Umierają m.in. Gyda oraz córka Siggy, Thyri. Lokalna ludność prosi Lagerthę, aby pomogła przebłagać bogów.

...( Obsada )...

Travis Fimmel - Ragnar Lothbrok
Katheryn Winnick - Lagertha Lothbrok
Clive Standen - Rollo
Gabriel Byrne - Earl Haraldson
Jessalyn Gilsig - Siggy Haraldson

...( Dane Techniczne )...

Video
ID : 1
Format : AVC
Format/Info : Advanced Video Codec
Format profile : High@L4.1
Format settings : CABAC / 5 Ref Frames
Format settings, CABAC : Yes
Format settings, RefFrames : 5 frames
Codec ID : V_MPEG4/ISO/AVC
Duration : 43 min 33 s
Bit rate : 2 899 kb/s
Width : 1 280 pixels
Height : 718 pixels
Display aspect ratio : 16:9
Frame rate mode : Constant
Frame rate : 23.976 (24000/1001) FPS
Color space : YUV
Chroma subsampling : 4:2:0
Bit depth : 8 bits
Scan type : Progressive
Bits/(Pixel*Frame) : 0.132
Stream size : 903 MiB (87%)
Writing library : x264 core 152 r2851 ba24899
Encoding settings : cabac=1 / ref=5 /
Default : Yes
Forced : No
Color range : Limited
Matrix coefficients : BT.709

Audio
ID : 2
Format : AC-3
Format/Info : Audio Coding 3
Format settings, Endianness : Big
Codec ID : A_AC3
Duration : 43 min 33 s
Bit rate mode : Constant
Bit rate : 384 kb/s
Channel(s) : 6 channels
Channel positions : Front: L C R, Side: L R, LFE
Sampling rate : 48.0 kHz
Frame rate : 31.250 FPS (1536 SPF)
Bit depth : 16 bits
Compression mode : Lossy
Stream size : 120 MiB (11%)
Service kind : Complete Main
Default : Yes
Forced : No

DETALE TORRENTA:[ Pokaż/Ukryj ]





Komentarze