Witaj Gościu! jeżeli widzisz ten dymek to znaczy że nie jesteś zarejestrowany/zalogowany. Kliknij by się zarejestrować. Rejestracja zajmie mniej niż 30 sekund, a dzięki niej zyskasz możliwość pobierania, komentowania oraz dodawania torrentów !


MENU


Panel Usera


Kategorie


PROGRAMY


Torrent: Iron Man 2 (2010) [1080p MULTi BluRay x264 DTS AC3] [LEKTOR/NAPISY PL] (DENDA)
Dodał:  vnkpyzwi
Data: 06-03-2019
Rozmiar: 14.95 GB
Seed: 0
Peer: 30
Kondycja:
Zaloguj się aby pobrać


Kategoria:  Filmy BluRay/HDTV 1080p
Gatunek: Sci-Fi / Fantasy
Zaakceptował: Nie wymagał akceptacji
Liczba pobrań: 15
Liczba komentarzy: 0
Ostatnia aktualizacja: 2019-03-06 23:01:49

OPIS:

SERIA: Iron Man [2008-2013] COLLECTION
TUTAJ INNE CZĘŚCI: http://filetracker.pl/szukaj.php?search=iron+man+1080p+x264+multi+lektor+denda

Iron Man 2 (2010) [1080p MULTi BluRay x264 DTS AC3] [LEKTOR/NAPISY PL] (DENDA)



Reżyseria: Jon Favreau
Scenariusz: Justin Theroux
Gatunek: Akcja, Sci-Fi / Action, Adventure, Sci-Fi
Produkcja: USA
Premiera: 30 kwietnia 2010 (Polska), 26 kwietnia 2010 (świat)
Czas: 2 godz. 4 min.
PG: PG-13



https://www.filmweb.pl/film/Iron+Man+2-2010-478702
https://fdb.pl/film/146811-iron-man-2
https://www.imdb.com/title/tt1228705/

IMDB: 7,0/10 (636.069)



Robert Downey Jr. powraca jako miliarder Tony Stark w ekscytującej kontynuacji popularnego na całym świecie kinowego hitu. Kiedy tożsamość superbohatera przestała być sekretem, życie Tony'ego stało się jeszcze bardziej intensywne. Wszyscy chcą zyskać dostęp do technologii Iron Mana - niektórzy dla władzy i zysku, inni, jak Ivan Vanko, czyli Whiplash (Mickey Rourke), dla zemsty! Tony będzie musiał raz jeszcze przywdziać strój Iron Mana i stawić czoła najbardziej niebezpiecznemu wrogowi, jednak tym razem u jego boku pojawi się kilku sojuszników.



Robert Downey Jr. ... Tony Stark
Gwyneth Paltrow ... Pepper Potts
Don Cheadle ... Lt. Col. James 'Rhodey' Rhodes
Scarlett Johansson ... Natalie Rushman / Natasha Romanoff
Sam Rockwell ... Justin Hammer
Mickey Rourke ... Ivan Vanko
Samuel L. Jackson ... Nick Fury



==
Plik: Iron.Man.2010_2.PL.1080p.MULTi.BluRay.x264.DTS.AC3-DENDA.mkv
----------------
----------[ eac3to v3.34 ]-----------------------------------
----------------
MKV, 1 video track, 2 audio tracks, 3 subtitle tracks, 2:04:39, 24p /1.001
1: h264/AVC, English, 1920x816 24p /1.001 (40:17)
2: AC3, Polish, 5.1 channels, 640kbps, 48kHz
  "Polish AC3 5.1"
3: DTS, English, 5.1 channels, 1509kbps, 48kHz
  "English DTS 5.1"
4: Subtitle (SRT), Polish, "Polish SRT"
5: Subtitle (PGS), Polish, "Polish PGS"
6: Subtitle (PGS), English, "English PGS"
----------------
----------[ ffmpeg version N-92829-g1a6cca1989 | built with gcc 8.2.1 (GCC) 20181201 ]--------------------
----------------
Input #0, matroska,webm, from 'Iron.Man.2010_2.PL.1080p.MULTi.BluRay.x264.DTS.AC3-DENDA.mkv':
 Metadata:
   encoder         : libebml2 v0.21.2 + libmatroska2 v0.22.3
   creation_time   : 2018-05-20T22:36:18.000000Z
 Duration: 02:04:39.15, start: 0.000000, bitrate: 17176 kb/s
   Stream #0:0(eng), 118, 1/1000: Video: h264 (High), 1 reference frame, yuv420p(tv, bt709, progressive, left), 1920x816 [SAR 1:1 DAR 40:17], 23.98 fps, 23.98 tbr, 1k tbn, 47.95 tbc (default)
   Stream #0:1(pol), 159, 1/1000: Audio: ac3, 48000 Hz, 5.1(side), fltp, 640 kb/s (default)
   Metadata:
     title           : Polish AC3 5.1
   Stream #0:2(eng), 463, 1/1000: Audio: dts (DTS), 48000 Hz, 5.1(side), fltp, 1536 kb/s
   Metadata:
     title           : English DTS 5.1
   Stream #0:3(pol), 0, 1/1000: Subtitle: subrip
   Metadata:
     title           : Polish SRT
   Stream #0:4(pol), 0, 1/1000: Subtitle: hdmv_pgs_subtitle
   Metadata:
     title           : Polish PGS
   Stream #0:5(eng), 0, 1/1000: Subtitle: hdmv_pgs_subtitle
   Metadata:
     title           : English PGS
----------------
----------[ napisy24.pl v1.93 ]------------------------------
----------------
Hash: 193C9CB5EBE74B44
Format: Matroska
Czas: 02:04:39.147
Rozmiar: 15.0 GiB (16057799280)

Wideo (0):
Kodek:         (V_MPEG4/ISO/AVC) AVC
Format:       AVC
Rozmiar Obrazu: 1920x816
FrameRate:     23.976 (24000/1001) FPS
Aspect ratio: 2.35:1
BitRate:       15.0 Mb/s

Audio (0):
Kodek:         (AC3) AC3
Format:       AC-3
Kanały:       6 channels
BitRate:       640 kb/s
Tytuł:         Polish AC3 5.1
Język:       Polish

Audio (1):
Kodek:         (DTS) DTS
Format:       DTS
Kanały:       6 channels
BitRate:       1 509 kb/s
Tytuł:         English DTS 5.1
Język:       English

Napisy (0):
Kodek:         (S_TEXT/UTF8) UTF-8
Format:       UTF-8
Język:       Polish (Polish SRT)

Napisy (1):
Kodek:         (S_HDMV/PGS) PGS
Format:       PGS
Język:       Polish (Polish PGS)

Napisy (2):
Kodek:         (S_HDMV/PGS) PGS
Format:       PGS
Język:       English (English PGS)
----------------
----------[ MediaINFO 18.12 ]--------------------------------
----------------
General
Unique ID                                : 238245199870113106705692184635629659133 (0xB33C5B408BAAAB46B20F715AA75463FD)
Complete name                            : Iron.Man.2010_2.PL.1080p.MULTi.BluRay.x264.DTS.AC3-DENDA.mkv
Format                                   : Matroska
Format version                           : Version 2
File size                                : 15.0 GiB
Duration                                 : 2 h 4 min
Overall bit rate                         : 17.2 Mb/s
Encoded date                             : UTC 2018-05-20 22:36:18
Writing application                      : mkclean 0.8.10 from libebml v1.3.6 + libmatroska v1.4.9 + mkvmerge v23.0.0 ('The Bride Said No' 64-bit
Writing library                          : libebml2 v0.21.2 + libmatroska2 v0.22.3
ErrorDetectionType                       : Custom

Video
ID                                       : 1
Format                                   : AVC
Format/INFO                              : Advanced Video Codec
Format profile                           : High@L4.1
Format settings                          : CABAC / 4 Ref Frames
Format settings, CABAC                   : Yes
Format settings, RefFrames               : 4 frames
Codec ID                                 : V_MPEG4/ISO/AVC
Duration                                 : 2 h 4 min
Bit rate                                 : 15.0 Mb/s
Width                                    : 1 920 pixels
Height                                   : 816 pixels
Display aspect ratio                     : 2.35:1
Frame rate mode                          : Constant
Frame rate                               : 23.976 (24000/1001) FPS
Color space                              : YUV
Chroma subsampling                       : 4:2:0
Bit depth                                : 8 bits
Scan type                                : Progressive
Bits/(Pixel*Frame)                       : 0.399
Stream size                              : 12.8 GiB (85%)
Writing library                          : x264 core 148 r2708 86b7198
Encoding settings                        : cabac=1 / ref=4 / deblock=1:0:0 / analyse=0x3:0x113 / me=umh / subme=8 / psy=1 / psy_rd=1.00:0.00 / mixed_ref=1 / me_range=16 / chroma_me=1 / trellis=1 / 8x8dct=1 / cqm=0 / deadzone=21,11 / fast_pskip=1 / chroma_qp_offset=-2 / threads=12 / lookahead_threads=4 / sliced_threads=0 / nr=0 / decimate=1 / interlaced=0 / bluray_compat=0 / constrained_intra=0 / bframes=8 / b_pyramid=2 / b_adapt=2 / b_bias=0 / direct=3 / weightb=1 / open_gop=0 / weightp=2 / keyint=240 / keyint_min=24 / scenecut=40 / intra_refresh=0 / rc_lookahead=50 / rc=2pass / mbtree=1 / bitrate=15000 / ratetol=1.0 / qcomp=0.60 / qpmin=0 / qpmax=69 / qpstep=4 / cplxblur=20.0 / qblur=0.5 / vbv_maxrate=62500 / vbv_bufsize=78125 / nal_hrd=none / filler=0 / ip_ratio=1.40 / aq=1:1.00
Language                                 : English
Default                                  : Yes
Forced                                   : No
Color range                              : Limited
Color primaries                          : BT.709
Transfer characteristics                 : BT.709
Matrix coefficients                      : BT.709

Audio #1
ID                                       : 2
Format                                   : AC-3
Format/INFO                              : Audio Coding 3
Commercial name                          : Dolby Digital
Codec ID                                 : A_AC3
Duration                                 : 2 h 4 min
Bit rate mode                            : Constant
Bit rate                                 : 640 kb/s
Channel(s)                               : 6 channels
Channel layout                           : L R C LFE Ls Rs
Sampling rate                            : 48.0 kHz
Frame rate                               : 31.250 FPS (1536 SPF)
Bit depth                                : 16 bits
Compression mode                         : Lossy
Stream size                              : 571 MiB (4%)
Title                                    : Polish AC3 5.1
Language                                 : Polish
Service kind                             : Complete Main
Default                                  : Yes
Forced                                   : No

Audio #2
ID                                       : 3
Format                                   : DTS
Format/INFO                              : Digital Theater Systems
Codec ID                                 : A_DTS
Duration                                 : 2 h 4 min
Bit rate mode                            : Constant
Bit rate                                 : 1 509 kb/s
Channel(s)                               : 6 channels
Channel layout                           : C L R Ls Rs LFE
Sampling rate                            : 48.0 kHz
Frame rate                               : 93.750 FPS (512 SPF)
Bit depth                                : 24 bits
Compression mode                         : Lossy
Stream size                              : 1.31 GiB (9%)
Title                                    : English DTS 5.1
Language                                 : English
Default                                  : No
Forced                                   : No

Text #1
ID                                       : 4
Format                                   : UTF-8
Codec ID                                 : S_TEXT/UTF8
Codec ID/INFO                            : UTF-8 Plain Text
Title                                    : Polish SRT
Language                                 : Polish
Default                                  : No
Forced                                   : No

Text #2
ID                                       : 5
Format                                   : PGS
Muxing mode                              : zlib
Codec ID                                 : S_HDMV/PGS
Codec ID/INFO                            : Picture based subtitle format used on BDs/HD-DVDs
Title                                    : Polish PGS
Language                                 : Polish
Default                                  : No
Forced                                   : No

Text #3
ID                                       : 6
Format                                   : PGS
Muxing mode                              : zlib
Codec ID                                 : S_HDMV/PGS
Codec ID/INFO                            : Picture based subtitle format used on BDs/HD-DVDs
Title                                    : English PGS
Language                                 : English
Default                                  : No
Forced                                   : No
==

DETALE TORRENTA:[ Pokaż/Ukryj ]
Podziękowania,
 




Komentarze