Witaj Gościu! jeżeli widzisz ten dymek to znaczy że nie jesteś zarejestrowany/zalogowany. Kliknij by się zarejestrować. Rejestracja zajmie mniej niż 30 sekund, a dzięki niej zyskasz możliwość pobierania, komentowania oraz dodawania torrentów !


MENU


Panel Usera


Kategorie


PROGRAMY


Torrent: The Raid 2: Infiltracja / Serbuan maut 2: Berandal (2014) [720p] [BluRay x264] [GECKOS] [IND/ENG] [Napisy PL]
Dodał: 
Data: 05-11-2018
Rozmiar: 7.65 GB
Seed: 2
Peer: 5
Kondycja:
Zaloguj się aby pobrać


Kategoria:  Filmy BluRay/HDTV 720p
Gatunek: Thrillery / Kryminalne
Zaakceptował: Nie wymagał akceptacji
Liczba pobrań: 3
Liczba komentarzy: 0
Ostatnia aktualizacja: 2018-11-05 16:02:10

OPIS:



Produkcja: USA, Indonezja
Gatunek: Thriller, Akcja
Premiera: 21 stycznia 2014 (świat)
Reżyseria: Gareth Evans
Scenariusz: Gareth Evans
NAPISY

Kod: Angielski,   Polski, Bułgarski, Hiszpański, Czeski, Francuski Serbski, Rumuński, Grecki

Po nalocie na kartel narkotykowy Rama (Iko Uwais) ma nadzieję na powrót do spokojnego i bezpiecznego życia. Rodzinną sielankę przerywa nowe zadanie - zostaje oddelegowany, by pod przykrywką, wykryć korupcję w policji. Misja niesie ze sobą ogromne niebezpieczeństwo, na które narażony będzie nie tylko policjant, ale również bliskie mu osoby.



? Iko Uwais .... Rama
? Arifin Putra .... Ucok, syn Banguna
? Tio Pakusodewo .... Bangun
? Oka Antara .... Eka, prawa ręka Banguna
? Alex Abbad .... Bejo
? Cecep Arif Rahman .... Zabójca
? Julie Estelle .... Alicia / Hammer Girl
? Very Tri Yulisman .... Mężczyzna z kijem bejsbolowym, brat Alicii



Cytuje:General
Complete name : The.Raid.2.2014.720p.BluRay.x264-GECKOS.mkv
Format : Matroska
Format version : Version 4 / Version 2
File size : 7.65 GiB
Duration : 2h 30mn
Overall bit rate : 7 277 Kbps
Encoded date : UTC 2018-11-04 19:04:56
Writing application : mkvmerge v27.0.0 ('Metropolis' 32-bit
Writing library : libebml v1.3.6 + libmatroska v1.4.9

Video
ID : 1
Format : AVC
Format/INFO : Advanced Video Codec
Format profile : High@L4.1
Format settings, CABAC : Yes
Format settings, ReFrames : 5 frames
Codec ID : V_MPEG4/ISO/AVC
Duration : 2h 30mn
Bit rate : 4 257 Kbps
Width : 1 280 pixels
Height : 536 pixels
Display aspect ratio : 2.40:1
Frame rate mode : Constant
Frame rate : 23.976 fps
Color space : YUV
Chroma subsampling : 4:2:0
Bit depth : 8 bits
Scan type : Progressive
Bits/(Pixel*Frame) : 0.259
Stream size : 4.47 GiB (58%)
Writing library : x264 core 142 r2431 ac76440
Encoding settings : cabac=1 / ref=5 / deblock=1:0:0 / analyse=0x3:0x133 / me=umh / subme=7 / psy=1 / psy_rd=1.00:0.00 / mixed_ref=1 / me_range=16 / chroma_me=1 / trellis=1 / 8x8dct=1 / cqm=0 / deadzone=21,11 / fast_pskip=0 / chroma_qp_offset=-2 / threads=18 / lookahead_threads=3 / sliced_threads=0 / nr=0 / decimate=1 / interlaced=0 / bluray_compat=0 / constrained_intra=0 / bframes=3 / b_pyramid=2 / b_adapt=1 / b_bias=0 / direct=1 / weightb=1 / open_gop=0 / weightp=2 / keyint=250 / keyint_min=23 / scenecut=40 / intra_refresh=0 / rc_lookahead=40 / rc=2pass / mbtree=1 / bitrate=4257 / ratetol=1.0 / qcomp=0.60 / qpmin=0 / qpmax=69 / qpstep=4 / cplxblur=20.0 / qblur=0.5 / ip_ratio=1.40 / aq=1:1.00
Language : Indonesian
Default : Yes
Forced : No

Audio #1
ID : 2
Format : DTS
Format/INFO : Digital Theater Systems
Mode : 16
Format settings, Endianness : Big
Codec ID : A_DTS
Duration : 2h 30mn
Bit rate mode : Constant
Bit rate : 1 509 Kbps
Channel(s) : 6 channels
Channel positions : Front: L C R, Side: L R, LFE
Sampling rate : 48.0 KHz
Frame rate : 93.750 fps (512 spf)
Bit depth : 24 bits
Compression mode : Lossy
Stream size : 1.59 GiB (21%)
Language : English
Default : No
Forced : No

Audio #2
ID : 3
Format : DTS
Format/INFO : Digital Theater Systems
Mode : 16
Format settings, Endianness : Big
Codec ID : A_DTS
Duration : 2h 30mn
Bit rate mode : Constant
Bit rate : 1 509 Kbps
Channel(s) : 6 channels
Channel positions : Front: L C R, Side: L R, LFE
Sampling rate : 48.0 KHz
Frame rate : 93.750 fps (512 spf)
Bit depth : 24 bits
Compression mode : Lossy
Stream size : 1.59 GiB (21%)
Language : Indonesian
Default : Yes
Forced : Yes

Text #1
ID : 4
Format : UTF-8
Codec ID : S_TEXT/UTF8
Codec ID/INFO : UTF-8 Plain Text
Duration : 2h 23mn
Bit rate : 28 bps
Count of elements : 961
Stream size : 30.0 KiB (0%)
Title : English-Forced
Language : English
Default : Yes
Forced : Yes

Text #2
ID : 5
Format : UTF-8
Codec ID : S_TEXT/UTF8
Codec ID/INFO : UTF-8 Plain Text
Duration : 2h 25mn
Bit rate : 42 bps
Count of elements : 827
Stream size : 45.4 KiB (0%)
Language : Bulgarian
Default : No
Forced : No

Text #3
ID : 6
Format : UTF-8
Codec ID : S_TEXT/UTF8
Codec ID/INFO : UTF-8 Plain Text
Duration : 2h 23mn
Bit rate : 30 bps
Count of elements : 1041
Stream size : 31.8 KiB (0%)
Language : Spanish
Default : No
Forced : No

Text #4
ID : 7
Format : UTF-8
Codec ID : S_TEXT/UTF8
Codec ID/INFO : UTF-8 Plain Text
Duration : 2h 24mn
Bit rate : 26 bps
Count of elements : 674
Stream size : 28.4 KiB (0%)
Language : Polish
Default : No
Forced : No

Text #5
ID : 8
Format : UTF-8
Codec ID : S_TEXT/UTF8
Codec ID/INFO : UTF-8 Plain Text
Duration : 2h 28mn
Bit rate : 36 bps
Count of elements : 941
Stream size : 39.1 KiB (0%)
Language : French
Default : No
Forced : No

Text #6
ID : 9
Format : UTF-8
Codec ID : S_TEXT/UTF8
Codec ID/INFO : UTF-8 Plain Text
Duration : 2h 23mn
Bit rate : 28 bps
Count of elements : 973
Stream size : 29.6 KiB (0%)
Language : Czech
Default : No
Forced : No

Text #7
ID : 10
Format : UTF-8
Codec ID : S_TEXT/UTF8
Codec ID/INFO : UTF-8 Plain Text
Duration : 2h 23mn
Bit rate : 26 bps
Count of elements : 1029
Stream size : 28.4 KiB (0%)
Language : Serbian
Default : No
Forced : No

Text #8
ID : 11
Format : UTF-8
Codec ID : S_TEXT/UTF8
Codec ID/INFO : UTF-8 Plain Text
Duration : 2h 23mn
Bit rate : 27 bps
Count of elements : 986
Stream size : 29.3 KiB (0%)
Language : Romanian
Default : No
Forced : No

Text #9
ID : 12
Format : UTF-8
Codec ID : S_TEXT/UTF8
Codec ID/INFO : UTF-8 Plain Text
Duration : 2h 23mn
Bit rate : 61 bps
Count of elements : 1069
Stream size : 64.7 KiB (0%)
Language : Greek
Default : No
Forced : No





DETALE TORRENTA:[ Pokaż/Ukryj ]
Podziękowania,
 




Komentarze