Witaj Gościu! jeżeli widzisz ten dymek to znaczy że nie jesteś zarejestrowany/zalogowany. Kliknij by się zarejestrować. Rejestracja zajmie mniej niż 30 sekund, a dzięki niej zyskasz możliwość pobierania, komentowania oraz dodawania torrentów !

MENU


Kategorie


FACEBOOK


PROGRAMY


REKLAMA


ZAGŁOSUJ NA NAS


Torrent



Torrent: Dwa oblicza zemsty-One-Eyed Jacks (1961)[BRRip 1080p x264 by alE13 AC3][Lektor i Napisy PL/Eng][Eng]
Dodał:  alE13
Data: 20-07-2017
Rozmiar: 8.36 GB
Seed: 1
Peer: 2
Pobierz Torrent


Kategoria:  Filmy BluRay/HDTV 1080p
Gatunek: Wojenne / Western
Zaakceptował: zibi6248
Liczba pobrań: 17
Liczba komentarzy: 0
Ostatnia aktualizacja: 2017-07-25 07:07:47
OPIS:





http://www.imdb.com/title/tt0055257/
http://www.filmweb.pl/film/Dwa+oblicza+zemsty-1961-5249

Jest to całkowicie od podstaw zremasterowana wersja filmu.
Plik zawiera Sample.


reżyseria: Marlon Brando
scenariusz: Calder WillinghamGuy Trosper
gatunek: Western
produkcja: USA
premiera: 30-03-1961
muzyka:         Hugo Friedhofer
zdjęcia:        Charles Lang
czas:           2h 22min





After robbing a Mexican bank, Dad Longworth takes the loot and leaves his partner Rio to be captured but Rio escapes and searches for Dad in California.

Akcja filmu toczy się w Meksyku w roku 1880. Kiedy Johnny Rio i Dad Longworth napadają na bank, szybko rusza za nimi pościg. Udaje im się zbiec, ale w czasie ucieczki pada koń Johnny'ego. Dad zabiera skradzione złoto i odjeżdża. Obiecuje wrócić po kompana, jednak Johnny zostaje pojmany i trafia do więzienia. Poprzysięga zemstę dawnemu towarzyszowi i po wyjściu na wolność przyłącza się do dwóch bandytów planujących napad na bank w Monterrey, gdzie szeryfem jest Dad Longworth.





Marlon Brando, Karl Malden, Pina Pellicer





One-Eyed Jacks (1961)-alE13.mkv
Format                      : Matroska
Format version              : Version 4 / Version 2
File size                   : 8.31 GiB
Duration                    : 2 h 22 min
Overall bit rate            : 8 368 kb/s
Movie name                  : One-Eyed Jacks (1961)-alE13
Encoded date                : UTC 2017-07-20 10:05:48
Writing application         : mkvmerge v8.1.0 ('Psychedelic Postcard' 64bit
Writing library             : libebml v1.3.1 + libmatroska v1.4.2
Cover                       : Yes
Attachments                 : Cover.jpg

Video
ID                          : 1
Format                      : AVC
Format/Info                 : Advanced Video Codec
Format profile              : High@L4.1
Format settings, CABAC      : Yes
Format settings, ReFrames   : 2 frames
Codec ID                    : V_MPEG4/ISO/AVC
Duration                    : 2 h 22 min
Bit rate                    : 7 726 kb/s
Width                       : 1 920 pixels
Height                      : 1 036 pixels
Display aspect ratio        : 1.85:1
Frame rate mode             : Constant
Frame rate                  : 23.976 (23976/1000) FPS
Original frame rate         : 23.976 (24000/1001) FPS
Color space                 : YUV
Chroma subsampling          : 4:2:0
Bit depth                   : 8 bits
Scan type                   : Progressive
Bits/(Pixel*Frame)          : 0.162
Stream size                 : 7.67 GiB (92%)
Title                       : One-Eyed Jacks (1961)-alE13
Writing library             : x264 core 142
Default                     : Yes
Forced                      : No
Color range                 : Limited
Color primaries             : BT.709
Transfer characteristics    : BT.709
Matrix coefficients         : BT.709

Audio #1
ID                          : 2
Format                      : AC-3
Format/Info                 : Audio Coding 3
Mode extension              : CM (complete main)
Format settings, Endianness : Big
Codec ID                    : A_AC3
Duration                    : 2 h 22 min
Bit rate mode               : Constant
Bit rate                    : 384 kb/s
Channel(s)                  : 2 channels
Channel positions           : Front: L R
Sampling rate               : 48.0 kHz
Frame rate                  : 31.250 FPS (1536 spf)
Compression mode            : Lossy
Stream size                 : 391 MiB (5%)
Title                       : One-Eyed Jacks (1961)-alE13_AC3
Language                    : English
Default                     : No
Forced                      : No

Audio #2
ID                          : 3
Format                      : AC-3
Format/Info                 : Audio Coding 3
Mode extension              : CM (complete main)
Format settings, Endianness : Big
Codec ID                    : A_AC3
Duration                    : 2 h 21 min
Bit rate mode               : Constant
Bit rate                    : 256 kb/s
Channel(s)                  : 6 channels
Channel positions           : Front: L C R, Side: L R, LFE
Sampling rate               : 44.1 kHz
Frame rate                  : 28.711 FPS (1536 spf)
Compression mode            : Lossy
Delay relative to video     : 2 s 500 ms
Stream size                 : 258 MiB (3%)
Title                       : One-Eyed Jacks (1961)-alE13_AC3
Default                     : Yes
Forced                      : No

Text
ID                          : 4
Format                      : UTF-8
Codec ID                    : S_TEXT/UTF8
Codec ID/Info               : UTF-8 Plain Text
Duration                    : 2 h 20 min
Bit rate                    : 32 b/s
Count of elements           : 1134
Stream size                 : 32.9 KiB (0%)
Title                       : One-Eyed Jacks (1961)-alE13_SRT
Language                    : Polish
Default                     : No
Forced                      : No

Menu
00:00:00.000                : en:Chapter 01
00:10:43.100                : en:Chapter 02
00:22:47.657                : en:Chapter 03
00:35:39.846                : en:Chapter 04
00:47:54.348                : en:Chapter 05
01:01:15.809                : en:Chapter 06
01:12:23.048                : en:Chapter 07
01:22:00.273                : en:Chapter 08
01:33:05.396                : en:Chapter 09
01:45:24.269                : en:Chapter 10
01:57:53.283                : en:Chapter 11
02:06:40.866                : en:Chapter 12
02:21:11.022                : en:Chapter 13

DETALE TORRENTA:[ Pokaż/Ukryj ]



Podobne pliki
Nie znaleziono podobnych tytułów!


Komentarze