Witaj Gościu! jeżeli widzisz ten dymek to znaczy że nie jesteś zarejestrowany/zalogowany. Kliknij by się zarejestrować. Rejestracja zajmie mniej niż 30 sekund, a dzięki niej zyskasz możliwość pobierania, komentowania oraz dodawania torrentów !


MENU


Panel Usera


Kategorie


PROGRAMY


Torrent: It Chapter Two *2019* [720p] [KORSUB] [HDRip] [XviD] [MP3] [STUTTERSHIT] [ENG]
Dodał:  vnkpyzwi
Data: 05-10-2019
Rozmiar: 4.63 GB
Seed: 0
Peer: 0
Kondycja:
Zaloguj się aby pobrać


Kategoria:  Filmy DivX/XviD
Gatunek: Horror
Zaakceptował: Nie wymagał akceptacji
Liczba pobrań: 64
Liczba komentarzy: 0
Ostatnia aktualizacja: 2019-10-11 23:04:47

OPIS:



Produkcja: Kanada, USA
Gatunek: Horror
Premiera: 6 września 2019 (Polska), 26 sierpnia 2019 (świat)
Reżyseria: Andy Muschietti
Scenariusz: Gary Dauberman



Zło wkrada się do miasteczka Derry położonego w stanie Maine co 27 lat. "To: Rozdział 2" ponownie gromadzi znanych nam z części pierwszej, dorosłych już bohaterów, którzy spotykają się prawie trzydzieści lat po wydarzeniach przedstawionych w filmie "To".



? Jessica Chastain .... Beverly Marsh
? James McAvoy .... Bill Denbrough
? Bill Hader .... Richie Tozier
? Isaiah Mustafa .... Mike Hanlon
? Jay Ryan .... Ben Hanscom
? James Ransone .... Eddie Kaspbrak
? Andy Bean .... Stanley Uris
? Bill Skarsg?rd .... Pennywise



Video
ID : 0
Format : MPEG-4 Visual
Format profile : Simple@L5
Format settings, BVOP : No
Format settings, QPel : No
Format settings, GMC : No warppoints
Format settings, Matrix : Default (H.263)
Codec ID : XVID
Codec ID/Hint : XviD
Duration : 2 h 44 min
Bit rate : 3 819 kb/s
Width : 1 280 pixels
Height : 534 pixels
Display aspect ratio : 2.40:1
Frame rate : 30.000 FPS
Color space : YUV
Chroma subsampling : 4:2:0
Bit depth : 8 bits
Scan type : Progressive
Compression mode : Lossy
Bits/(Pixel*Frame) : 0.186
Stream size : 4.39 GiB (95%)
Writing library : Lavc58.1.100

Audio
ID : 1
Format : MPEG Audio
Format version : Version 1
Format profile : Layer 3
Format settings : Joint stereo
Codec ID : 55
Codec ID/Hint : MP3
Duration : 2 h 44 min
Bit rate mode : Constant
Bit rate : 192 kb/s
Channel(s) : 2 channels
Sampling rate : 48.0 kHz
Compression mode : Lossy
Stream size : 226 MiB (5%)
Alignment : Aligned on interleaves
Interleave, duration : 24 ms (0.72 video frame)
Interleave, preload duration : 504 ms



https://imagecurl.com/viewer.php?file=26090810607852233809.png
https://imagecurl.com/viewer.php?file=49609486174115562940.png
https://imagecurl.com/viewer.php?file=93948099317165353611.png

DETALE TORRENTA:[ Pokaż/Ukryj ]
Podziękowania,
 


Podobne pliki
Nie znaleziono podobnych tytułów!


Komentarze