Witaj Gościu! jeżeli widzisz ten dymek to znaczy że nie jesteś zarejestrowany/zalogowany. Kliknij by się zarejestrować. Rejestracja zajmie mniej niż 30 sekund, a dzięki niej zyskasz możliwość pobierania, komentowania oraz dodawania torrentów !



User:      Hasło:     

MENU


Kategorie


FACEBOOK


PROGRAMY


Torrent: Life Fittness [Part 1] (2018)[BRRip 1080p x264 by alE13 AAC][Eng]
Dodał:  alE13
Data: 24-09-2018
Rozmiar: 12.25 GB
Seed: 1
Peer: 0
Kondycja:
Zaloguj się aby pobrać


Kategoria:  Teledyski

Zaakceptował: verbatim
Liczba pobrań: 5
Liczba komentarzy: 0
Ostatnia aktualizacja: 2018-09-24 08:15:39

OPIS:





Tytuł: Lite Fittness autorstwa ALEXnROCK część 1
Gatunek: Pop, Trance
Rok produkcji: 2018
Czas trwania: 3:05:37



Compilation of various pieces for fitness rooms, contains rhythmic clips with dance pop music from 2010-2018.
Suitable for all physical exercises and dancing, let good music be with us!(translate by Google)

Kompilacja różnych kawałków do sal fitness, zawiera rytmiczne klipy z taneczną muzyką pop z lat 2010-2018.
Nadaje się do wszelkich ćwiczeń fizycznych i tańca, niech z nami będzie dobra muzyka!







opcjonalnie

004 Cotpit - Out Of Time  (1).mkv
Format                      : Matroska
Format version              : Version 4 / Version 2
File size                   : 239 MiB
Duration                    : 3 min 35 s
Overall bit rate            : 9 271 kb/s
Movie name                  : 004 Cotpit - Out Of Time
Encoded date                : UTC 2018-09-24 04:41:39
Writing application         : mkvmerge v8.1.0 ('Psychedelic Postcard' 64bit
Writing library             : libebml v1.3.1 + libmatroska v1.4.2 / Lavf57.71.100

Video
ID                          : 1
Format                      : AVC
Format/Info                 : Advanced Video Codec
Format profile              : Main@L4
Format settings             : CABAC / 2 Ref Frames
Format settings, CABAC      : Yes
Format settings, ReFrames   : 2 frames
Codec ID                    : V_MPEG4/ISO/AVC
Duration                    : 3 min 35 s
Bit rate                    : 9 073 kb/s
Width                       : 1 920 pixels
Height                      : 1 080 pixels
Display aspect ratio        : 16:9
Frame rate mode             : Constant
Frame rate                  : 25.000 FPS
Color space                 : YUV
Chroma subsampling          : 4:2:0
Bit depth                   : 8 bits
Scan type                   : Progressive
Bits/(Pixel*Frame)          : 0.175
Stream size                 : 234 MiB (98%)
Title                       : 004 Cotpit - Out Of Time
Default                     : Yes
Forced                      : No

Audio
ID                          : 2
Format                      : AAC
Format/Info                 : Advanced Audio Codec
Format profile              : LC
Codec ID                    : A_AAC-2
Duration                    : 3 min 35 s
Bit rate                    : 192 kb/s
Channel(s)                  : 2 channels
Channel positions           : Front: L R
Sampling rate               : 48.0 kHz
Frame rate                  : 46.875 FPS (1024 SPF)
Compression mode            : Lossy
Stream size                 : 5.00 MiB (2%)
Title                       : 004 Cotpit - Out Of Time
Default                     : Yes
Forced                      : No

DETALE TORRENTA:[ Pokaż/Ukryj ]
Podziękowania,
 


Podobne pliki
Nie znaleziono podobnych tytułów!


Komentarze