Witaj Gościu! jeżeli widzisz ten dymek to znaczy że nie jesteś zarejestrowany/zalogowany. Kliknij by się zarejestrować. Rejestracja zajmie mniej niż 30 sekund, a dzięki niej zyskasz możliwość pobierania, komentowania oraz dodawania torrentów !


MENU


Panel Usera


Kategorie


PROGRAMY


Torrent: Złoto Mackenny/Mackenna\'s Gold (1969)[BRRip 1080p x264 by alE13 AC3/DTS][Lektor i Napisy PL/Eng][Eng]
Dodał:  alE13
Data: 12-02-2019
Rozmiar: 14.38 GB
Seed: 1
Peer: 1
Kondycja:
Zaloguj się aby pobrać


Kategoria:  Filmy BluRay/HDTV 1080p
Gatunek: Wojenne / Western
Zaakceptował: Nieznany użytkownik
Liczba pobrań: 9
Liczba komentarzy: 0
Ostatnia aktualizacja: 2019-02-12 09:31:24

OPIS:







http://www.filmweb.pl/film/Z%C5%82oto+MacKenny-1969-31308
http://www.imdb.com/title/tt0064615/

Plik zawiera Sample.
DTS-HD Master Audio w osobnym pliku.
Jest to inny rip innego BR-a.


reżyseria: J. Lee Thompson
scenariusz: Carl Foreman
gatunek: Western
produkcja: USA
premiera: 18-03-1969
muzyka:         Quincy Jones
zdjęcia:        Joseph MacDonald
czas:           2h 7mn



The gangster Colorado kidnaps Marshal McKenna. He believes that McKenna has seen a map which leads
to a rich vein of gold in the mountains and forces him to show him the way. But they're not the only
ones who're after the gold; soon they meet a group of "honorable" citizens and the cavalry crosses
their way too - and that is even before they enter Indian territory.

Akcja filmu rozgrywa się w 1872 roku w Arizonie. Szeryf Mackenna (Gregory Peck) wpada w zasadzkę
zastawioną przez wodza Apaczów. W czasie walki szeryf ciężko go rani. Tuż przed śmiercią Indianin
powierza mu starą mapę Doliny Złota, gdzie znajduje się legendarny skarb Apaczów. Po dokładnym zapoznaniu
się z mapą, Mackenna niszczy ją. Wkrótce potem zostaje schwytany przez groźnego bandytę Colorado (Omar Sharif),
który więzi córkę miejscowego sędziego. Jeżeli szeryf nie zaprowadzi go do Doliny Złota, dziewczyna zginie.












Gregory Peck, Omar Sharif, Telly Savalas



Mackenna's Gold (1974)-alE13.mkv
Format                      : Matroska
Format version              : Version 4
File size                   : 12.5 GiB
Duration                    : 2 h 8 min
Overall bit rate            : 13.9 Mb/s
Movie name                  : Mackenna's Gold (1969)-alE13
Encoded date                : UTC 2019-02-12 07:16:59
Writing application         : mkvmerge v8.1.0 ('Psychedelic Postcard' 64bit
Writing library             : libebml v1.3.1 + libmatroska v1.4.2
Cover                       : Yes
Attachments                 : Cover.jpg

Video
ID                          : 1
Format                      : AVC
Format/Info                 : Advanced Video Codec
Format profile              : High@L4.1
Format settings             : CABAC / 2 Ref Frames
Format settings, CABAC      : Yes
Format settings, ReFrames   : 2 frames
Codec ID                    : V_MPEG4/ISO/AVC
Duration                    : 2 h 8 min
Bit rate                    : 13.1 Mb/s
Width                       : 1 920 pixels
Height                      : 800 pixels
Display aspect ratio        : 2.40:1
Frame rate mode             : Constant
Frame rate                  : 23.976 (24000/1001) FPS
Color space                 : YUV
Chroma subsampling          : 4:2:0
Bit depth                   : 8 bits
Scan type                   : Progressive
Bits/(Pixel*Frame)          : 0.355
Stream size                 : 11.7 GiB (94%)
Title                       : Mackenna's Gold (1974)-alE13
Writing library             : x264 core 142
Default                     : Yes
Forced                      : No
Color range                 : Limited
Color primaries             : BT.709
Transfer characteristics    : BT.709
Matrix coefficients         : BT.709

Audio #1
ID                          : 2
Format                      : AC-3
Format/Info                 : Audio Coding 3
Commercial name             : Dolby Digital
Codec ID                    : A_AC3
Duration                    : 2 h 7 min
Bit rate mode               : Constant
Bit rate                    : 192 kb/s
Channel(s)                  : 2 channels
Channel layout              : L R
Sampling rate               : 48.0 kHz
Frame rate                  : 31.250 FPS (1536 SPF)
Bit depth                   : 16 bits
Compression mode            : Lossy
Delay relative to video     : 850 ms
Stream size                 : 176 MiB (1%)
Title                       : Mackenna's Gold (1974)-alE13_AC3
Language                    : Polish
Service kind                : Complete Main
Default                     : Yes
Forced                      : No

Audio #2
ID                          : 3
Format                      : AC-3
Format/Info                 : Audio Coding 3
Commercial name             : Dolby Digital
Codec ID                    : A_AC3
Duration                    : 2 h 8 min
Bit rate mode               : Constant
Bit rate                    : 640 kb/s
Channel(s)                  : 6 channels
Channel layout              : L R C LFE Ls Rs
Sampling rate               : 48.0 kHz
Frame rate                  : 31.250 FPS (1536 SPF)
Bit depth                   : 16 bits
Compression mode            : Lossy
Stream size                 : 587 MiB (5%)
Title                       : Mackenna's Gold (1974)-alE13_AC3
Language                    : English
Service kind                : Complete Main
Default                     : No
Forced                      : No

Text #1
ID                          : 4
Format                      : UTF-8
Codec ID                    : S_TEXT/UTF8
Codec ID/Info               : UTF-8 Plain Text
Duration                    : 2 h 4 min
Bit rate                    : 32 b/s
Count of elements           : 758
Stream size                 : 29.2 KiB (0%)
Title                       : Mackenna's Gold (1974)-alE13
Language                    : Polish
Default                     : No
Forced                      : No

Text #2
ID                          : 5
Format                      : UTF-8
Codec ID                    : S_TEXT/UTF8
Codec ID/Info               : UTF-8 Plain Text
Duration                    : 2 h 5 min
Bit rate                    : 33 b/s
Count of elements           : 760
Stream size                 : 30.8 KiB (0%)
Title                       : Mackenna's Gold (1974)-alE13
Language                    : English
Default                     : No
Forced                      : No

DETALE TORRENTA:[ Pokaż/Ukryj ]
Podziękowania,
 


Podobne pliki
Nie znaleziono podobnych tytułów!


Komentarze