Witaj Gościu! jeżeli widzisz ten dymek to znaczy że nie jesteś zarejestrowany/zalogowany. Kliknij by się zarejestrować. Rejestracja zajmie mniej niż 30 sekund, a dzięki niej zyskasz możliwość pobierania, komentowania oraz dodawania torrentów !


MENU


Panel Usera


Kategorie


PROGRAMY


Torrent: Odwróceni Ojcowie i córki S02E08 [720p WEBRip H 264 AC3] [PL]
Dodał:  vnkpyzwi
Data: 09-04-2019
Rozmiar: 0.99 GB
Seed: 1612
Peer: 74
Kondycja:
Zaloguj się aby pobrać


Kategoria:  Seriale Polskie

Zaakceptował: Nie wymagał akceptacji
Liczba pobrań: 69
Liczba komentarzy: 0
Ostatnia aktualizacja: 2019-04-14 20:53:52

OPIS:



produkcja: PL
gatunek: Kryminał, Dramat
reżyseria: Michał Gazda
scenariusz: Artur Kowalewski, Wojciech Zimiński
zdjęcia: Tomasz Augustynek
muzyka: Antoni Komasa-Łazarkiewicz
czas trwania: ok. 44 min.



Blacha i Sikora nie utrzymują już ze sobą kontaktu. "Pruszkowscy" gangsterzy są na wolności, odsiedzieli swoje wyroki i stali się legalni. Stary "Pruszków" nie istnieje. Ten, który go zlikwidował - komisarz Paweł Sikora - jest emerytowanym policjantem. Córka Sikory, Lidka poszła w ślady ojca i jest policjantką w Komendzie Stołecznej. Odwrócony przez Sikorę gangster Blacha został biznesmenem i świadkiem koronnym - celebrytą. Wydał kilkanaście książek o mafii i spija śmietankę ze swojej dawnej złej sławy. Jego córka Kasia właśnie skończyła z wyróżnieniem prawo. Jednak nierozwiązane wydarzenia z przeszłości niespodziewanie wracają do bohaterów. Śledztwo w sprawie serii brutalnych morderstw, które mogą mieć związek z przeszłością Blachy i Sikory, prowadzi córka Sikory - Lidka - razem ze swoim partnerem w policji Latą. Komisarz - emeryt Paweł Sikora i gangster - literat Blacha muszą znów współpracować, żeby przeżyć. Obaj doświadczą najbardziej elementarnego uczucia człowieka - lęku o własne dzieci.



Robert Więckiewicz - Jan "Blacha" Blachowski
Artur Żmijewski - Paweł Sikora
Joanna Balasz - Lidia Sikora
Eliza Rycembel - Katarzyna Blachowska
Tomasz Schuchardt - Policjant Lato
Małgorzata Foremniak - Mira Blachowska
Anna Dereszowska - Laura Różycka
Wojciech Zieliński - Arkadiusz Cyganik "Cyga"



Format : Matroska
Format version : Version 4 / Version 2
File size : 1 011 MiB
Duration : 44 min 7 s
Overall bit rate mode : Constant
Overall bit rate : 3 204 kb/s
Encoded date : UTC 2019-04-09 16:15:46

Video
ID : 1
Format : AVC
Format/INFO : Advanced Video Codec
Format profile : High@L3.1
Format settings : CABAC / 5 Ref Frames
Format settings, CABAC : Yes
Format settings, ReFrames : 5 frames
Codec ID : V_MPEG4/ISO/AVC
Duration : 44 min 7 s
Bit rate mode : Constant
Bit rate : 2 818 kb/s
Nominal bit rate : 3 000 kb/s
Width : 1 280 pixels
Height : 720 pixels
Display aspect ratio : 16:9
Frame rate mode : Constant
Frame rate : 25.000 FPS
Color space : YUV
Chroma subsampling : 4:2:0
Bit depth : 8 bits
Scan type : Progressive
Bits/(Pixel*Frame) : 0.122
Stream size : 889 MiB (88%)
Default : Yes
Forced : Yes

Audio
ID : 2
Format : AC-3
Format/INFO : Audio Coding 3
Commercial name : Dolby Digital
Codec ID : A_AC3
Duration : 44 min 6 s
Bit rate mode : Constant
Bit rate : 384 kb/s
Channel(s) : 2 channels
Channel layout : L R
Sampling rate : 48.0 kHz
Frame rate : 31.250 FPS (1536 SPF)
Bit depth : 16 bits
Compression mode : Lossy
Stream size : 121 MiB (12%)
Language : Polish
Service kind : Complete Main
Default : Yes
Forced : Yes

DETALE TORRENTA:[ Pokaż/Ukryj ]
Podziękowania,
 




Komentarze