Witaj Gościu! jeżeli widzisz ten dymek to znaczy że nie jesteś zarejestrowany/zalogowany. Kliknij by się zarejestrować. Rejestracja zajmie mniej niż 30 sekund, a dzięki niej zyskasz możliwość pobierania, komentowania oraz dodawania torrentów !


MENU


Panel Usera


Kategorie


PROGRAMY


Torrent: Iniemamocni II/Incredibles II 3D (2018)[BDRip 1080p x264 by alE13 AC3/DTS][Lektor i Napisy PL/Eng][Eng]
Dodał:  alE13
Data: 23-02-2019
Rozmiar: 16.34 GB
Seed: 1
Peer: 2
Kondycja:
Zaloguj się aby pobrać


Kategoria:  Filmy 3D
Gatunek: Anime / Bajka
Zaakceptował: verbatim
Liczba pobrań: 22
Liczba komentarzy: 0
Ostatnia aktualizacja: 2019-02-23 11:08:23

OPIS:







https://www.imdb.com/title/tt3606756/
https://www.filmweb.pl/film/Iniemamocni+2-2018-740144

Plik zawiera Sample.
Multi Audio AC3/DTS w osobnym pliku.


reżyseria: Brad Bird
scenariusz: Brad Bird
gatunek: Animacja,Przygodowy
produkcja: USA
premiera: 05-06-2018
muzyka:         Michael Giacchino
zdjęcia:        Mahyar Abousaeedi,Erik Smitt
czas:            1 h 57 min  



The Incredibles hero family takes on a new mission, which involves a change in family roles: Bob Parr (Mr Incredible)
must manage the house while his wife Helen (Elastigirl) goes out to save the world.

W rodzinie Iniemamocnych przyszła kolej na zmiany! Podczas gdy Helen rozwija swoją karierę zawodową, jej mąż Bob
zostaje w domu z dziećmi realizując się w zaciszu domowych pieleszy. Ta nowa sytuacja jest trudna dla wszystkich,
a pączkujące nadprzyrodzone zdolności małego Jack-Jacka nie czynią jej łatwiejszą. Kiedy kolejny szwarccharakter
planuje genialny i niebezpieczny spisek, cała rodzina Iniemamocnych musi ponownie zjednoczyć siły, aby stawić czoła
nowemu wyzwaniu. Łatwiej powiedzieć, trudniej zrobić – nawet dla Iniemamocnych.










Craig T. Nelson, Holly Hunter, Sarah Vowell (voice)



video:

Video: MPEG4 Video (H264) 1920x1080 23.976fps [V: Incredibles II 3D (2018)-alE13 (h264 high L4.1, yuv420p, 1920x1080) [default]]
Audio: Dolby AC3 48000Hz 6ch 640kbps [A: Incredibles II 3D (2018)-alE13_AC3 [eng] (ac3, 48000 Hz, 5.1, 640 kb/s)]
Audio: Dolby AC3 48000Hz 6ch 384kbps [A: Incredibles II 3D (2018)-alE13_AC3 [pol] (ac3, 48000 Hz, 5.1, 384 kb/s) [default]]
Subtitle: VobSub [S: Incredibles II 3D (2018)-alE13_VobSub [pol] (vobsub)]
Subtitle [S: Incredibles II 3D (2018)-alE13_PGS [eng] (pgs)]

audio:

Audio #1
ID                          : 1
Format                      : DTS XLL
Format/Info                 : Digital Theater Systems
Commercial name             : DTS-HD Master Audio
Codec ID                    : A_DTS
Duration                    : 1 h 57 min
Bit rate mode               : Variable
Bit rate                    : 2 847 kb/s
Channel(s)                  : 8 channels
Channel layout              : C L R LFE Lb Rb Lss Rss
Sampling rate               : 48.0 kHz
Frame rate                  : 93.750 FPS (512 SPF)
Bit depth                   : 16 bits
Compression mode            : Lossless
Stream size                 : 2.34 GiB (28%)
Title                       : Incredibles II 3D (2018)-alE13_DTS-HD MA 7.1 ch
Language                    : English
Default                     : Yes
Forced                      : No

Audio #2
ID                          : 2
Format                      : DTS
Format/Info                 : Digital Theater Systems
Codec ID                    : A_DTS
Duration                    : 1 h 57 min
Bit rate mode               : Constant
Bit rate                    : 1 509 kb/s
Channel(s)                  : 6 channels
Channel layout              : C L R Ls Rs LFE
Sampling rate               : 48.0 kHz
Frame rate                  : 93.750 FPS (512 SPF)
Bit depth                   : 24 bits
Compression mode            : Lossy
Stream size                 : 1.24 GiB (15%)
Title                       : Incredibles II 3D (2018)-alE13_DTS
Language                    : English
Default                     : No
Forced                      : No

Audio #3
ID                          : 3
Format                      : DTS XBR
Format/Info                 : Digital Theater Systems
Commercial name             : DTS-HD High Resolution Audio
Codec ID                    : A_DTS
Duration                    : 1 h 57 min
Bit rate mode               : Constant
Bit rate                    : 2 046 kb/s
Channel(s)                  : 6 channels
Channel layout              : C L R Ls Rs LFE
Sampling rate               : 48.0 kHz
Frame rate                  : 93.750 FPS (512 SPF)
Bit depth                   : 24 bits
Compression mode            : Lossy
Stream size                 : 1.68 GiB (20%)
Title                       : IIncredibles II 3D (2018)-alE13_DTS-HD High Resolution
Language                    : English
Default                     : No
Forced                      : No

Audio #4
ID                          : 4
Format                      : DTS
Format/Info                 : Digital Theater Systems
Codec ID                    : A_DTS
Duration                    : 1 h 57 min
Bit rate mode               : Constant
Bit rate                    : 1 509 kb/s
Channel(s)                  : 6 channels
Channel layout              : C L R Ls Rs LFE
Sampling rate               : 48.0 kHz
Frame rate                  : 93.750 FPS (512 SPF)
Bit depth                   : 16 bits
Compression mode            : Lossy
Stream size                 : 1.24 GiB (15%)
Title                       : Incredibles II 3D (2018)-alE13_DTS
Language                    : English
Default                     : No
Forced                      : No

Audio #5
ID                          : 5
Format                      : AC-3
Format/Info                 : Audio Coding 3
Commercial name             : Dolby Digital
Codec ID                    : A_AC3
Duration                    : 1 h 57 min
Bit rate mode               : Constant
Bit rate                    : 320 kb/s
Channel(s)                  : 2 channels
Channel layout              : L R
Sampling rate               : 48.0 kHz
Frame rate                  : 31.250 FPS (1536 SPF)
Bit depth                   : 16 bits
Compression mode            : Lossy
Stream size                 : 270 MiB (3%)
Title                       : Incredibles II 3D (2018)-alE13_AC3
Language                    : English
Service kind                : Complete Main
Default                     : No
Forced                      : No

Audio #6
ID                          : 6
Format                      : E-AC-3
Format/Info                 : Enhanced AC-3
Commercial name             : Dolby Digital Plus
Format profile              : Blu-ray Disc
Codec ID                    : A_EAC3
Duration                    : 1 h 57 min
Bit rate mode               : Constant
Bit rate                    : 896 kb/s
Channel(s)                  : 6 channels
Channel(s)_Original         : 8 channels
Channel layout              : L R C LFE Ls Rs Lb Rb
Sampling rate               : 48.0 kHz
Frame rate                  : 31.250 FPS (1536 SPF)
Compression mode            : Lossy
Stream size                 : 755 MiB (9%)
Title                       : Incredibles II 3D (2018)-alE13_AC3
Language                    : French
Service kind                : Complete Main
Default                     : No
Forced                      : No

Audio #7
ID                          : 7
Format                      : E-AC-3
Format/Info                 : Enhanced AC-3
Commercial name             : Dolby Digital Plus
Format profile              : Blu-ray Disc
Codec ID                    : A_EAC3
Duration                    : 1 h 57 min
Bit rate mode               : Constant
Bit rate                    : 896 kb/s
Channel(s)                  : 6 channels
Channel(s)_Original         : 8 channels
Channel layout              : L R C LFE Ls Rs Lb Rb
Sampling rate               : 48.0 kHz
Frame rate                  : 31.250 FPS (1536 SPF)
Compression mode            : Lossy
Stream size                 : 755 MiB (9%)
Title                       : Incredibles II 3D (2018)-alE13_AC3
Language                    : German
Service kind                : Complete Main
Default                     : No
Forced                      : No

Text #1
ID                          : 8
Format                      : PGS
Muxing mode                 : zlib
Codec ID                    : S_HDMV/PGS
Codec ID/Info               : Picture based subtitle format used on BDs/HD-DVDs
Duration                    : 1 h 54 min
Bit rate                    : 15.6 kb/s
Count of elements           : 4626
Stream size                 : 12.8 MiB (0%)
Title                       : Incredibles II 3D (2018)-alE13_AC3PGS
Language                    : English
Default                     : No
Forced                      : No

Text #2
ID                          : 9
Format                      : PGS
Muxing mode                 : zlib
Codec ID                    : S_HDMV/PGS
Codec ID/Info               : Picture based subtitle format used on BDs/HD-DVDs
Duration                    : 1 h 46 min
Bit rate                    : 11.5 kb/s
Count of elements           : 3332
Stream size                 : 8.77 MiB (0%)
Title                       : Incredibles II 3D (2018)-alE13_AC3_PGS
Language                    : French
Default                     : No
Forced                      : No

Text #3
ID                          : 10
Format                      : PGS
Muxing mode                 : zlib
Codec ID                    : S_HDMV/PGS
Codec ID/Info               : Picture based subtitle format used on BDs/HD-DVDs
Duration                    : 1 h 46 min
Bit rate                    : 12.3 kb/s
Count of elements           : 3384
Stream size                 : 9.37 MiB (0%)
Title                       : Incredibles II 3D (2018)-alE13_AC3_PGS
Language                    : German
Default                     : No
Forced                      : No

Text #4
ID                          : 11
Format                      : VobSub
Muxing mode                 : zlib
Codec ID                    : S_VOBSUB
Codec ID/Info               : Picture based subtitle format used on DVDs
Duration                    : 1 h 46 min
Bit rate                    : 11.1 kb/s
Count of elements           : 1734
Stream size                 : 8.43 MiB (0%)
Title                       : Incredibles II 3D (2018)-alE13_AC3
Language                    : Polish
Default                     : No
Forced                      : No

DETALE TORRENTA:[ Pokaż/Ukryj ]
Podziękowania,
 


Podobne pliki
Nie znaleziono podobnych tytułów!


Komentarze