Witaj Gościu! jeżeli widzisz ten dymek to znaczy że nie jesteś zarejestrowany/zalogowany. Kliknij by się zarejestrować. Rejestracja zajmie mniej niż 30 sekund, a dzięki niej zyskasz możliwość pobierania, komentowania oraz dodawania torrentów !


MENU


Panel Usera


Kategorie


PROGRAMY


Torrent: Chyłka - Zaginięcie S01E01-04 [720p WEB-DL H 264 AC3] [PL]
Dodał:  8fd415bf
Data: 07-01-2019
Rozmiar: 4.47 GB
Seed: 41
Peer: 82
Kondycja:
Zaloguj się aby pobrać


Kategoria:  Seriale Polskie

Zaakceptował: Nie wymagał akceptacji
Liczba pobrań: 78
Liczba komentarzy: 0
Ostatnia aktualizacja: 2019-01-07 16:52:07

OPIS:



produkcja: PL
gatunek: Kryminał, Dramat, Thriller
reżyseria: Łukasz Palkowski
scenariusz: Justyna Stefaniak, Krzysztof Szpetmański, Michał Wawrzecki
zdjęcia: Mateusz Wichłacz
muzyka: Bartosz Chajdecki
czas trwania: ok. 41-44 min.



Główna bohaterka Joanna Chyłka jest zdolna, bezkompromisowa, odważna i niepokorna. W prawniczym świecie pełnym mężczyzn w niczym im nie ustępuje. Gdy trzyletnia Nikola Szlezyngier znika bez śladu, a policja nie znajduje dowodów wskazujących na porwanie, głównymi podejrzanymi stają się rodzice dziecka. To właśnie Chyłka i jej nowy aplikant Kordian Oryński podejmują się obrony małżeństwa. Wszystkie poszlaki wskazują jednak na winę Szlezyngierów. Czy prawnicy zdołają wspólnie doprowadzić sprawę do szczęśliwego finału?



Magdalena Cielecka - Joanna Chyłka
Filip Pławiak - Kordian "Zordon" Oryński
Katarzyna Warnke - Angelika Szlezyngier
Michał Żurawski - Dawid Szlezyngier
Jacek Koman - Harry McVay
Szymon Bobrowski - Artur Żelazny
Piotr Stramowski - Adam Kosmowski
Piotr Żurawski - Kormak



Format : Matroska
Format version : Version 4 / Version 2
File size : 1.11 GiB
Duration : 42 min 51 s
Overall bit rate mode : Variable
Overall bit rate : 3 693 kb/s
Encoded date : UTC 2019-01-06 15:48:51

Video
ID : 1
Format : AVC
Format/INFO : Advanced Video Codec
Format profile : High@L3.1
Format settings : CABAC / 5 Ref Frames
Format settings, CABAC : Yes
Format settings, ReFrames : 5 frames
Codec ID : V_MPEG4/ISO/AVC
Duration : 42 min 51 s
Bit rate mode : Variable
Bit rate : 3 307 kb/s
Maximum bit rate : 4 500 kb/s
Width : 1 280 pixels
Height : 720 pixels
Display aspect ratio : 16:9
Frame rate mode : Constant
Frame rate : 25.000 FPS
Color space : YUV
Chroma subsampling : 4:2:0
Bit depth : 8 bits
Scan type : Progressive
Bits/(Pixel*Frame) : 0.144
Stream size : 1 014 MiB (90%)
Default : Yes
Forced : Yes
Color range : Limited
Color primaries : BT.709
Transfer characteristics : BT.709
Matrix coefficients : BT.709

Audio
ID : 2
Format : AC-3
Format/INFO : Audio Coding 3
Codec ID : A_AC3
Duration : 42 min 51 s
Bit rate mode : Constant
Bit rate : 384 kb/s
Channel(s) : 2 channels
Channel positions : Front: L R
Sampling rate : 48.0 kHz
Frame rate : 31.250 FPS (1536 SPF)
Bit depth : 16 bits
Compression mode : Lossy
Stream size : 118 MiB (10%)
Language : Polish
Service kind : Complete Main
Default : Yes
Forced : Yes

DETALE TORRENTA:[ Pokaż/Ukryj ]
Podziękowania, ozyrys1971
 




Komentarze