Witaj Gościu! jeżeli widzisz ten dymek to znaczy że nie jesteś zarejestrowany/zalogowany. Kliknij by się zarejestrować. Rejestracja zajmie mniej niż 30 sekund, a dzięki niej zyskasz możliwość pobierania, komentowania oraz dodawania torrentów !

User:      Hasło:     

MENU


Kategorie


FACEBOOK


PROGRAMY


WspółPraca
Poradnik
KAN


ZAGŁOSUJ NA NAS


Torrent



Torrent: Shania Twain-Videography (2007)[DVDRip Remux by alE13 AC3/DTS][Eng]
Dodał:  alE13
Data: 10-10-2017
Rozmiar: 6.23 GB
Seed: 1
Peer: 0
Kondycja:
Zaloguj się aby pobrać


Kategoria:  Teledyski

Zaakceptował: verbatim
Liczba pobrań: 13
Liczba komentarzy: 0
Ostatnia aktualizacja: 2017-10-10 05:15:37

OPIS:





Wstawka na prośbę Kolegi.

Rok: 2007
Kraj: USA
Gatunek: Pop/country
czas: 130 min.



Collection of the best music videos Shania Twain from DVDs with the best quality sound.

Zbiór najlepszych teledysków Shanai Twain z płyt DVD w najlepszej jakości dźwiękowej.



What Made You Say That
Dance with the One That Brought You
You Lay a Whole Lot of Love on Me
Whose Beds Have Your Boots Been Under?
Any Man of Mine
The Woman in Me (Needs the Man in You)
(If You're Not in It for Love) I'm Outta Here!
You Win My Love
No One Needs to Know
Home Ain't Where His Heart Is (Anymore)
God Bless the Child
Love Gets Me Every Time
Don't Be Stupid (You Know I Love You)
You're Still the One
Honey I'm Home
From This Moment On
That Don't Impress Me Much
Man! I Feel Like a Woman!
You've Got a Way
Come On Over
Rock This Country
I'm Gonna Getcha Good
Up!
Ka-Ching!
Forever And For Always
When You Kiss Me
Party For Two - feat Billy Currington (Country Music Version)
Party For Two - feat Mark McGrath
Don'T
I Aint No Quitter



opcionalnie

Shania Twain - Love Gets Me Every Time.VOB
Format : MPEG-PS
File size : 182 MiB
Duration : 46mn 20s
Overall bit rate : 548 Kbps
Writing library : encoded by TMPGEnc (ver. 2.521.58.169)

Video
ID : 224 (0xE0)
Format : MPEG Video
Format version : Version 2
Format profile : Main@Main
Format settings, BVOP : Yes
Format settings, Matrix : Default
Format settings, GOP : M=3, N=13
Duration : 46mn 20s
Width : 720 pixels
Height : 480 pixels
Display aspect ratio : 4:3
Frame rate : 29.970 fps
Standard : NTSC
Color space : YUV
Chroma subsampling : 4:2:0
Bit depth : 8 bits
Compression mode : Lossy
Time code of first frame : 00:00:00:00
Time code source : Group of pictures header
GOP, Open/Closed : Open
GOP, Open/Closed of first f : Closed
Writing library : TMPGEnc 2.521.58.169
Color primaries : BT.601 NTSC
Transfer characteristics : BT.601
Matrix coefficients : BT.601

Audio #1
ID : 189 (0xBD)-128 (0x80)
Format : AC-3
Format/Info : Audio Coding 3
Mode extension : CM (complete main)
Format settings, Endianness : Big
Muxing mode : DVD-Video
Duration : 3mn 34s
Bit rate mode : Constant
Bit rate : 192 Kbps
Channel(s) : 2 channels
Channel positions : Front: L R
Sampling rate : 48.0 KHz
Compression mode : Lossy
Delay relative to video : 42mn 45s
Stream size : 4.92 MiB (3%)

Audio #2
ID : 189 (0xBD)-137 (0x89)
Format : DTS
Format/Info : Digital Theater Systems
Mode : 16
Format settings, Endianness : Big
Muxing mode : DVD-Video
Duration : 3mn 34s
Bit rate mode : Constant
Bit rate : 755 Kbps
Channel(s) : 5 channels
Channel positions : Front: L C R, Side: L R
Sampling rate : 48.0 KHz
Bit depth : 24 bits
Compression mode : Lossy
Delay relative to video : 42mn 45s
Stream size : 19.3 MiB (11%)

DETALE TORRENTA:[ Pokaż/Ukryj ]
Podziękowania, Go??


Podobne pliki
Nie znaleziono podobnych tytułów!


Komentarze