Witaj Gościu! jeżeli widzisz ten dymek to znaczy że nie jesteś zarejestrowany/zalogowany. Kliknij by się zarejestrować. Rejestracja zajmie mniej niż 30 sekund, a dzięki niej zyskasz możliwość pobierania, komentowania oraz dodawania torrentów !

MENU


Kategorie


FACEBOOK


PROGRAMY


WspółPraca
Poradnik
KAN


ZAGŁOSUJ NA NAS


Torrent



Torrent: Kod 211/211 (2018)[BRRip 1080p x264 by alE13 AC3/DTS][Napisy PL/Eng][Eng]
Dodał:  alE13
Data: 06-07-2018
Rozmiar: 8.92 GB
Seed: 43
Peer: 53
Kondycja:
Zaloguj się aby pobrać


Kategoria:  Filmy BluRay/HDTV 1080p
Gatunek: Akcja / Sensacyjny
Zaakceptował: verbatim
Liczba pobrań: 61
Liczba komentarzy: 0
Ostatnia aktualizacja: 2018-07-07 19:05:37

OPIS:



[img]https://i.imgur.com/4GgY23p.jpg[/img]

https://www.imdb.com/title/tt4976192/
https://www.filmweb.pl/film/211-2018-807770

Audio DTS w osobnym pliku.
Plik zawiera Sample.


produkcja:      USA
gatunek:        Akcja, Dramat
reżyseria:      York Alec Shackleton
scenariusz:     York Alec Shackleton
premiera:       08-06-2018 r. Ograniczona
czas:           0104



Inspired by one of the longest and bloodiest real-life events in police history. Officer
Mike Chandler (Nicolas Cage) and a young civilian passenger find themselves under-prepared
and outgunned when fate puts them squarely in the crosshairs of a daring bank heist in progress
by a fearless team of highly trained and heavily armed men.

Film zainspirowany jednym z najdłuższych i najbardziej krwawych wydarzeń w historii policji.
Funkcjonariusz Mike Chandler (Nicolas Cage) i młody pasażer stają się świadkami napadu
bank,są nie przygotowani i nie dostatecznie uzbrojeni, los stawia ich na celowniku  grupy
dobrze wyszkolonych i silnie uzbrojonych bandytów.



Nicolas Cage, Sophie Skelton, Michael Rainey Jr.



audio:

211 (201-alE13_DTS.mka

Hash: 6C4F831C94E3A74A
Format: Matroska
Czas: 0104.555
Rozmiar: 1.19 GiB (1281445516)

Audio (0):
Kodek:         (DTS-HD) DTS-HD
Format:       DTS
Kanały:       6 channels
BitRate:       1 959 kb/s / 1 509 kb/s
Tytuł:         211 (201-alE13_DTS
Język:       English

Napisy (0):
Kodek:         (S_TEXT/UTF UTF-8
Format:       UTF-8
Język:       English (211 (201-alE13)

video:

211 (201-alE13.mkv
Format                      : Matroska
Format version              : Version 4 / Version 2
File size                   : 7.73 GiB
Duration                    : 1 h 27 min
Overall bit rate            : 12.7 Mb/s
Movie name                  : 211 (201-alE13
Encoded date                : UTC 2018-07-06 10:48:13
Writing application         : mkvmerge v8.1.0 ('Psychedelic Postcard' 64bit
Writing library             : libebml v1.3.1 + libmatroska v1.4.2
Cover                       : Yes
Attachments                 : Cover.jpg

Video
ID                          : 1
Format                      : AVC
Format/Info                 : Advanced Video Codec
Format profile              : High@L4.1
Format settings             : CABAC / 2 Ref Frames
Format settings, CABAC      : Yes
Format settings, ReFrames   : 2 frames
Codec ID                    : V_MPEG4/ISO/AVC
Duration                    : 1 h 27 min
Bit rate                    : 12.1 Mb/s
Width                       : 1 920 pixels
Height                      : 1 032 pixels
Display aspect ratio        : 1.85:1
Frame rate mode             : Constant
Frame rate                  : 23.976 (24000/1001) FPS
Color space                 : YUV
Chroma subsampling          : 4:2:0
Bit depth                   : 8 bits
Scan type                   : Progressive
Bits/(Pixel*Frame)          : 0.254
Stream size                 : 7.34 GiB (95%)
Title                       : 211 (201-alE13
Writing library             : x264 core 142
Default                     : Yes
Forced                      : No
Color range                 : Limited
Color primaries             : BT.709
Transfer characteristics    : BT.709
Matrix coefficients         : BT.709

Audio
ID                          : 2
Format                      : AC-3
Format/Info                 : Audio Coding 3
Codec ID                    : A_AC3
Duration                    : 1 h 27 min
Bit rate mode               : Constant
Bit rate                    : 640 kb/s
Channel(s)                  : 6 channels
Channel positions           : Front: L C R, Side: L R, LFE
Sampling rate               : 48.0 kHz
Frame rate                  : 31.250 FPS (1536 SPF)
Bit depth                   : 16 bits
Compression mode            : Lossy
Stream size                 : 399 MiB (5%)
Title                       : 211 (201-alE13
Language                    : English
Service kind                : Complete Main
Default                     : No
Forced                      : No

Text #1
ID                          : 3
Format                      : UTF-8
Codec ID                    : S_TEXT/UTF8
Codec ID/Info               : UTF-8 Plain Text
Duration                    : 1 h 21 min
Bit rate                    : 105 b/s
Count of elements           : 1000
Stream size                 : 63.1 KiB (0%)
Title                       : 211 (201-alE13
Language                    : Polish
Default                     : Yes
Forced                      : No

Text #2
ID                          : 4
Format                      : UTF-8
Codec ID                    : S_TEXT/UTF8
Codec ID/Info               : UTF-8 Plain Text
Duration                    : 1 h 22 min
Bit rate                    : 53 b/s
Count of elements           : 1018
Stream size                 : 32.5 KiB (0%)
Title                       : 211 (201-alE13
Language                    : English
Default                     : No
Forced                      : No

Menu
00:00:00.000                : en:Chapter 01
00:05:50.641                : en:Chapter 02
00:10:14.530                : en:Chapter 03
00:16:36.286                : en:Chapter 04
00:22:31.266                : en:Chapter 05
0017.177                : en:Chapter 06
00:32:44.337                : en:Chapter 07
00:38:47.908                : en:Chapter 08
00:44:38.884                : en:Chapter 09
00:49:44.314                : en:Chapter 10
00:54:29.391                : en:Chapter 11
01:00:31.836                : en:Chapter 12
01:05:32.887                : en:Chapter 13
01:11:29.243                : en:Chapter 14
01:16:34.464                : en:Chapter 15
01:22:27.484                : en:Chapter 16

DETALE TORRENTA:[ Pokaż/Ukryj ]
Podziękowania, Metal, dareczek69
 


Podobne pliki
Nie znaleziono podobnych tytułów!


Komentarze