Witaj Gościu! jeżeli widzisz ten dymek to znaczy że nie jesteś zarejestrowany/zalogowany. Kliknij by się zarejestrować. Rejestracja zajmie mniej niż 30 sekund, a dzięki niej zyskasz możliwość pobierania, komentowania oraz dodawania torrentów !



User:      Hasło:     

MENU


Kategorie


FACEBOOK


PROGRAMY


Torrent: Max (2015) [AC3] [BRRip XviD]-NN [Lektor PL]
Dodał:  8fd415bf
Data: 12-01-2019
Rozmiar: 1.30 GB
Seed: 0
Peer: 0
Kondycja:
Zaloguj się aby pobrać


Kategoria:  Filmy DivX/XviD
Gatunek: Przygodowy
Zaakceptował: Nie wymagał akceptacji
Liczba pobrań: 15
Liczba komentarzy: 0
Ostatnia aktualizacja: 2019-01-12 19:35:23

OPIS:

Pobrałeś/aś podziękuj To nic nie kosztuje a Motywuje!!

NA PROSBĘ  OfiaraLosu



produkcja:USA
reżyseria:Boaz Yakin
scenariusz:Sheldon Lettich Boaz Yakin
premiera:29 stycznia 2015 (świat)
gatunek:Familijny Przygodowy


https://www.filmweb.pl/film/Max-2015-715815



Wyszkolony pies Max służył w Afganistanie. Stał się nerwowy i nieposłuszny, gdy opiekujący się nim żołnierz (Robbie Amell) zginął na froncie. Pies trafił wówczas do rodziny zmarłego. Zmagający się z własnymi problemami nastoletni brat żołnierza, Justin (Josh Wiggins), początkowo nie akceptuje psa. Z czasem jednak się z nim zaprzyjaźnia. Ciepły film familijny o więzi łączącej psa i człowieka. W roli głównej wystąpił Josh Wiggins, nominowany za swoją kreację do Nagrody Młodych Artystów.



Josh Wiggins ....... Justin
Lauren Graham ....... Pamela
Joseph Julian Soria ....... Emilio
Luke Kleintank ....... Tyler Harne
Thomas Haden Church ....... Ray
Robbie Amell ....... Kyle Wincott
Owen Harn ....... Stack



File size : 1.30 GiB
Duration : 1 h 46 min
Overall bit rate : 1 744 kb/s

Video
Codec ID/Hint : XviD
Duration : 1 h 46 min
Bit rate : 1 542 kb/s
Width : 720 pixels
Height : 304 pixels
Display aspect ratio : 2.35:1
Frame rate : 25.000 FPS
Stream size : 1.15 GiB (88%)

Audio
Format : AC-3
Bit rate : 192 kb/s
Channel(s) : 2 channels
Channel positions : Front: L R
Sampling rate : 48.0 kHz
Stream size : 146 MiB (11%)  

https://www.youtube.com/watch?v=6EPPMCwD5bw

DETALE TORRENTA:[ Pokaż/Ukryj ]
Podziękowania,
 




Komentarze