Witaj Gościu! jeżeli widzisz ten dymek to znaczy że nie jesteś zarejestrowany/zalogowany. Kliknij by się zarejestrować. Rejestracja zajmie mniej niż 30 sekund, a dzięki niej zyskasz możliwość pobierania, komentowania oraz dodawania torrentów !

User:      Hasło:     

MENU


Kategorie


FACEBOOK


PROGRAMY


WspółPraca
Poradnik
KAN


ZAGŁOSUJ NA NAS


Torrent



Torrent: Polskie Kroniki Filmowe [PKF][1945 - 1992]
Dodał:  viola62
Data: 11-02-2018
Rozmiar: 2.05 GB
Seed: 0
Peer: 0
Kondycja:
Zaloguj się aby pobrać


Kategoria:  Filmy DivX/XviD
Gatunek: Dokumentalny
Zaakceptował: Nie wymagał akceptacji
Liczba pobrań: 36
Liczba komentarzy: 0
Ostatnia aktualizacja: 2018-02-11 19:08:18

OPIS:

...( Info )...

Magazyn filmowy kontynuował przerwaną działalność Kroniki Filmowej Polskiej Agencji Telegraficznej (Tygodnik Filmowy PAT), lecz w zupełnie odmiennym stylu. Magazyn powstał przy przekształceniu wojskowej Wytwórni Filmowej „Czołówka”. Publikowany był 1-2 razy w tygodniu w latach 1944[1]-1994 i był swego rodzaju rejestrem bieżących wydarzeń oraz oficjalnym instrumentem propagandowym w okresie PRL. Obok oficjalnych informacji rządowych znajdowały się w nim także materiały propagandowe (stygmatyzujące wybrane zjawiska polityczne, społeczne, gospodarcze oraz na niskim szczeblu władzy), komentarze sportowe, relacje z wydarzeń kulturalnych oraz sporo „żartów i dowcipów filmowych”. Zazwyczaj w jednym dziesięciominutowym odcinku kroniki było kilka (około 7) różnych tematów, choć zdarzały się kroniki w całości poświęcone jednemu tematowi (np. świętu 1 maja). Począwszy od połowy lat 60. XX wieku, produkowano 2 wydania w tygodniu – wydanie A (o zasięgu ogólnopolskim) i B (zawężony zasięg – tylko kina miejskie). W tym samym okresie PKF włączono również do ramówki Telewizji Polskiej i wyświetlano ją (z przerwami) jako stały punkt programu telewizyjnego.

W Kronice znajdowały się głównie materiały krajowe, sporadycznie zagraniczne. W latach 70. PKF wymieniała materiały z 48 kronikami zagranicznymi: głównie z ZSRR, Czechosłowacją, Anglią, NRD, RFN i Francją. W czasach stalinizmu Kronika była narzędziem propagandy politycznej.

Pierwszym redaktorem kroniki był Jerzy Bossak (1910-1989). Lektorami Kroniki byli: Władysław Hańcza (1905-1977), Wiesław Górnicki, Andrzej Łapicki, Włodzimierz Kmicik, Jerzy Rosołowski, Czesław Seniuch, Marek Gajewski, Tomasz Knapik, Tadeusz Sznuk, Krzysztof Świętochowski, Jeremi Przybora (odc.1/1952), Andrzej Ferenc (odc.36/1992). Z kroniką współpracowali też: jako operator filmowy materiałów krajowych Bogusław Lambach (1925-198, Andrzej Munk (1920-1961). Kompozytorem sygnału Polskiej Kroniki Filmowej był Władysław Szpilman.

Kronika powstawała w Wytwórni Filmów Dokumentalnych w Warszawie przy ul. Chełmskiej 21. 1 stycznia 1995 zaprzestano wyświetlania PKF w kinach, ponieważ po przemianach ustrojowych powstawały poważne kłopoty z kolportażem Kroniki. Notacje filmowe realizowane były do 2012 roku.

...( Dane Techniczne )...

Format                      : MPEG-4
Format profile              : Base Media / Version 2
Codec ID                    : mp42
File size                   : 148 MiB
Duration                    : 48mn 37s
Overall bit rate mode       : Variable
Overall bit rate            : 426 Kbps
Encoded date                : UTC 2015-01-02 11:05:18
Tagged date                 : UTC 2015-01-02 11:05:18
gsst                        : 0
gstd                        : 2917098
gssd                        : B4A7DD844MM1441769342017140
gshh                        : r4---sn-cg07lues.googlevideo.com

Video
ID                          : 1
Format                      : AVC
Format/Info                 : Advanced Video Codec
Format profile              : Baseline@L2.1
Format settings, CABAC      : No
Format settings, ReFrames   : 1 frame
Codec ID                    : avc1
Codec ID/Info               : Advanced Video Coding
Duration                    : 48mn 37s
Bit rate                    : 327 Kbps
Maximum bit rate            : 1 283 Kbps
Width                       : 480 pixels
Height                      : 360 pixels
Display aspect ratio        : 4:3
Frame rate mode             : Constant
Frame rate                  : 25.000 fps
Color space                 : YUV
Chroma subsampling          : 4:2:0
Bit depth                   : 8 bits
Scan type                   : Progressive
Bits/(Pixel*Frame)          : 0.076
Stream size                 : 114 MiB (77%)
Tagged date                 : UTC 2015-01-02 11:05:25

Audio
ID                          : 2
Format                      : AAC
Format/Info                 : Advanced Audio Codec
Format profile              : LC
Codec ID                    : 40
Duration                    : 48mn 37s
Bit rate mode               : Variable
Bit rate                    : 96.0 Kbps
Maximum bit rate            : 104 Kbps
Channel(s)                  : 2 channels
Channel positions           : Front: L R
Sampling rate               : 44.1 KHz
Compression mode            : Lossy
Stream size                 : 33.4 MiB (23%)
Title                       : IsoMedia File Produced by Google, 5-11-2011
Encoded date                : UTC 2015-01-02 11:05:21
Tagged date                 : UTC 2015-01-02 11:05:25

DETALE TORRENTA:[ Pokaż/Ukryj ]
Podziękowania, Lech066
 


Podobne pliki
Nie znaleziono podobnych tytułów!


Komentarze