Witaj Gościu! jeżeli widzisz ten dymek to znaczy że nie jesteś zarejestrowany/zalogowany. Kliknij by się zarejestrować. Rejestracja zajmie mniej niż 30 sekund, a dzięki niej zyskasz możliwość pobierania, komentowania oraz dodawania torrentów !

MENU


Kategorie


FACEBOOK


PROGRAMY


REKLAMA


ZAGŁOSUJ NA NAS


Torrent



Torrent: Zachodni Szlak-The Way West (1967)[BRRip 1080p x264 by alE13 AC3/DTS][Lektor i Napisy PL][Eng]
Dodał:  alE13
Data: 30-06-2017
Rozmiar: 8.23 GB
Seed: 2
Peer: 1
Pobierz Torrent


Kategoria:  Filmy BluRay/HDTV 1080p
Gatunek: Wojenne / Western
Zaakceptował: verbatim
Liczba pobrań: 27
Liczba komentarzy: 0
Ostatnia aktualizacja: 2017-07-21 13:59:28
OPIS:





http://www.imdb.com/title/tt0062479/
http://www.filmweb.pl/film/Zachodni+szlak-1967-104992

Plik zawiera Sample.

reżyseria: Andrew V. McLaglen
scenariusz: Mitch Lindemann,Ben Maddow
gatunek: Western
produkcja: USA
premiera: 24-05-1967
muzyka:         Bronisław Kaper
zdjęcia:        William H. Clothier
czas:           2 h 2 min





In 1843, a former U.S. senator leads a wagon train of settlers to Oregon, but his megalomania leads to growing
dissatisfaction with his leadership.

Rok 1843. William J. Tadlock dowodzi wyprawą do Oregonu historycznym szlakiem. Gdy jeden z osadników,
Johnie, przypadkowo zabija syna indiańskiego wodza, Tadlock postanawia wymierzyć sprawiedliwość sprawcy
tragedii. Zostaje on powieszony. Wkrótce okazuje się, że śmierć Johnniego opłakuje nie tylko młoda wdowa,
ale także Mercy, która spodziewa się jego dziecka.





Kirk Douglas, Robert Mitchum, Richard Widmark





The Way West (1967)-alE13.mkv
Format                      : Matroska
Format version              : Version 4 / Version 2
File size                   : 8.18 GiB
Duration                    : 2 h 2 min
Overall bit rate            : 9 593 kb/s
Movie name                  : The Way West (1967)-alE13
Encoded date                : UTC 2017-06-30 05:13:40
Writing application         : mkvmerge v8.1.0 ('Psychedelic Postcard' 64bit
Writing library             : libebml v1.3.1 + libmatroska v1.4.2
Cover                       : Yes
Attachments                 : Cover.jpg / Cover.jpg

Video
ID                          : 1
Format                      : AVC
Format/Info                 : Advanced Video Codec
Format profile              : High@L4.1
Format settings, CABAC      : Yes
Format settings, ReFrames   : 2 frames
Format settings, GOP        : M=3, N=24
Codec ID                    : V_MPEG4/ISO/AVC
Duration                    : 2 h 2 min
Bit rate                    : 8 116 kb/s
Width                       : 1 920 pixels
Height                      : 820 pixels
Display aspect ratio        : 2.35:1
Frame rate mode             : Constant
Frame rate                  : 23.976 (24000/1001) FPS
Color space                 : YUV
Chroma subsampling          : 4:2:0
Bit depth                   : 8 bits
Scan type                   : Progressive
Bits/(Pixel*Frame)          : 0.215
Stream size                 : 6.92 GiB (85%)
Title                       : The Way West (1967)-alE13
Writing library             : x264 core 142
Default                     : Yes
Forced                      : No
Color range                 : Limited
Color primaries             : BT.709
Transfer characteristics    : BT.709
Matrix coefficients         : BT.709

Audio #1
ID                          : 2
Format                      : DTS
Format/Info                 : Digital Theater Systems
Mode                        : 16
Format settings, Endianness : Big
Codec ID                    : A_DTS
Duration                    : 2 h 2 min
Bit rate mode               : Constant
Bit rate                    : 768 kb/s
Channel(s)                  : 2 channels
Channel positions           : Front: L R
Sampling rate               : 48.0 kHz
Frame rate                  : 93.750 FPS (512 spf)
Bit depth                   : 16 bits
Compression mode            : Lossy
Stream size                 : 670 MiB (8%)
Title                       : The Way West (1967)-alE13_DTS
Language                    : English
Default                     : No
Forced                      : No

Audio #2
ID                          : 3
Format                      : AC-3
Format/Info                 : Audio Coding 3
Mode extension              : CM (complete main)
Format settings, Endianness : Big
Codec ID                    : A_AC3
Duration                    : 2 h 2 min
Bit rate mode               : Constant
Bit rate                    : 256 kb/s
Channel(s)                  : 2 channels
Channel positions           : Front: L R
Sampling rate               : 44.1 kHz
Frame rate                  : 28.711 FPS (1536 spf)
Compression mode            : Lossy
Delay relative to video     : 24 ms
Stream size                 : 223 MiB (3%)
Title                       : The Way West (1967)-alE13_AC3
Language                    : Polish
Default                     : Yes
Forced                      : No

Audio #3
ID                          : 4
Format                      : AC-3
Format/Info                 : Audio Coding 3
Mode extension              : CM (complete main)
Format settings, Endianness : Big
Codec ID                    : A_AC3
Duration                    : 2 h 2 min
Bit rate mode               : Constant
Bit rate                    : 448 kb/s
Channel(s)                  : 2 channels
Channel positions           : Front: L R
Sampling rate               : 48.0 kHz
Frame rate                  : 31.250 FPS (1536 spf)
Compression mode            : Lossy
Stream size                 : 391 MiB (5%)
Title                       : The Way West (1967)-alE13_AC3
Language                    : English
Default                     : No
Forced                      : No

Text
ID                          : 5
Format                      : UTF-8
Codec ID                    : S_TEXT/UTF8
Codec ID/Info               : UTF-8 Plain Text
Duration                    : 2 h 0 min
Bit rate                    : 42 b/s
Count of elements           : 988
Stream size                 : 37.4 KiB (0%)
Title                       : The Way West (1967)-alE13
Language                    : Polish
Default                     : No
Forced                      : No

Menu
00:00:00.000                : en:00:00:00.000
00:07:21.858                : en:00:07:21.858
00:15:39.689                : en:00:15:39.689
00:28:44.640                : en:00:28:44.640
00:42:01.227                : en:00:42:01.227
00:53:14.358                : en:00:53:14.358
00:59:05.000                : en:00:59:05.000
01:12:48.406                : en:01:12:48.406
01:18:14.648                : en:01:18:14.648
01:28:32.933                : en:01:28:32.933
01:39:05.231                : en:01:39:05.231
01:46:25.254                : en:01:46:25.254

DETALE TORRENTA:[ Pokaż/Ukryj ]



Podobne pliki
Nie znaleziono podobnych tytułów!


Komentarze